Blood Diamond (2006)

R | 2h 23min | Adventure, Drama, Thriller | 8 December 2006 (USA)

A fisherman, a smuggler, and a syndicate of businessmen match wits over the possession of a priceless diamond.

Watch trailer

Media information

General
Format : Matroska
Format version : Version 4 / Version 2
File size : 1.80 GiB
Duration : 2 h 23 min
Overall bit rate : 1 794 kb/s
Movie name : Blood.Diamond.2006.1080p.BluRay.6CH.x265.HEVC
Encoded date : UTC 2018-07-26 22:14:42
Writing application : mkvmerge v25.0.0 (‘Prog Noir’) 32-bit
Writing library : libebml v1.3.6 + libmatroska v1.4.9

Video
ID : 1
Format : HEVC
Format/Info : High Efficiency Video Coding
Format profile : [email protected]@Main
Codec ID : V_MPEGH/ISO/HEVC
Duration : 2 h 23 min
Bit rate : 1 600 kb/s
Width : 1 920 pixels
Height : 796 pixels
Display aspect ratio : 2.40:1
Frame rate mode : Constant
Frame rate : 23.976 (24000/1001) FPS
Color space : YUV
Chroma subsampling : 4:2:0
Bit depth : 8 bits
Bits/(Pixel*Frame) : 0.044
Stream size : 1.60 GiB (89%)
Default : Yes
Forced : No
Color range : Limited
Color primaries : BT.709
Transfer characteristics : BT.709
Matrix coefficients : BT.709

Audio
ID : 3
Format : AAC
Format/Info : Advanced Audio Codec
Format profile : HE-AAC / LC
Format settings : Explicit
Codec ID : A_AAC-2
Duration : 2 h 23 min
Bit rate : 192 kb/s
Channel(s) : 6 channels
Channel positions : Front: L C R, Side: L R, LFE
Sampling rate : 48.0 kHz / 24.0 kHz
Frame rate : 23.438 FPS (1024 SPF)
Compression mode : Lossy
Delay relative to video : -4 ms
Stream size : 197 MiB (11%)
Default : Yes
Forced : No

Text
ID : 2
Format : UTF-8
Codec ID : S_TEXT/UTF8
Codec ID/Info : UTF-8 Plain Text
Duration : 2 h 13 min
Bit rate : 52 b/s
Count of elements : 1437
Stream size : 51.6 KiB (0%)
Default : Yes
Forced : No

[collapse]
Download Link(s)

Part01 Part02

[RE-UP]-Direct download files get automatically deleted after a month or so. Posted on : 11/15/2018

[collapse]
Magnet Link

Magnet

Source : Blood.Diamond.2006.1080p.CEE.BluRay.VC-1.TrueHD.5.1-FGT- 29.86 GB

[collapse]

Media information

General
Format : Matroska
Format version : Version 4 / Version 2
File size : 851 MiB
Duration : 2 h 23 min
Overall bit rate : 829 kb/s
Movie name : Blood.Diamond.2006.720p.BluRay.2CH.x265.HEVC
Encoded date : UTC 2018-07-26 22:12:02
Writing application : mkvmerge v25.0.0 (‘Prog Noir’) 32-bit
Writing library : libebml v1.3.6 + libmatroska v1.4.9

Video
ID : 3
Format : HEVC
Format/Info : High Efficiency Video Coding
Format profile : [email protected]@Main
Codec ID : V_MPEGH/ISO/HEVC
Duration : 2 h 23 min
Bit rate : 764 kb/s
Width : 1 280 pixels
Height : 532 pixels
Display aspect ratio : 2.40:1
Frame rate mode : Constant
Frame rate : 23.976 (24000/1001) FPS
Color space : YUV
Chroma subsampling : 4:2:0
Bit depth : 8 bits
Bits/(Pixel*Frame) : 0.047
Stream size : 783 MiB (92%)
Default : Yes
Forced : No
Color range : Limited
Color primaries : BT.709
Transfer characteristics : BT.709
Matrix coefficients : BT.709

Audio
ID : 2
Format : AAC
Format/Info : Advanced Audio Codec
Format profile : HE-AAC / LC
Format settings : Explicit
Codec ID : A_AAC-2
Duration : 2 h 23 min
Bit rate : 64.0 kb/s
Channel(s) : 2 channels
Channel positions : Front: L R
Sampling rate : 48.0 kHz / 24.0 kHz
Frame rate : 23.438 FPS (1024 SPF)
Compression mode : Lossy
Delay relative to video : -4 ms
Stream size : 65.6 MiB (8%)
Default : Yes
Forced : No

Text
ID : 1
Format : UTF-8
Codec ID : S_TEXT/UTF8
Codec ID/Info : UTF-8 Plain Text
Duration : 2 h 13 min
Bit rate : 52 b/s
Count of elements : 1437
Stream size : 51.6 KiB (0%)
Default : Yes
Forced : No

[collapse]
Download Link(s)

Download

[RE-UP]-Direct download files get automatically deleted after a month or so. Posted on : 11/15/2018

[collapse]
Magnet Link

Magnet

Source : Blood.Diamond.2006.1080p.BluRay.x264.DTS-FGT-12.09 GB

[collapse]

You may also like...

error: nah :p~