Blue My Mind (2017)

1h 37min | Drama , Fantasy | 4 October 2018 (Hungary)

15-year-old Mia is facing an overwhelming transformation which calls her entire existence into question. Her body is changing radically, and despite desperate attempts to halt the process, she is soon forced to accept that nature is far more powerful than her.

Watch trailer

Media information

General
Format : Matroska
Format version : Version 4
File size : 802 MiB
Duration : 1 h 37 min
Overall bit rate : 1 152 kb/s
Movie name : Blue.My.Mind.2018.720p.WEB-DL.2CH.x264.AVC
Encoded date : UTC 2018-11-20 20:37:32
Writing application : mkvmerge v28.2.0 (‘The Awakening’) 32-bit
Writing library : libebml v1.3.6 + libmatroska v1.4.9

Video
ID : 3
Format : AVC
Format/Info : Advanced Video Codec
Format profile : [email protected]
Format settings : CABAC / 5 Ref Frames
Format settings, CABAC : Yes
Format settings, RefFrames : 5 frames
Codec ID : V_MPEG4/ISO/AVC
Duration : 1 h 37 min
Bit rate : 1 087 kb/s
Width : 1 280 pixels
Height : 528 pixels
Display aspect ratio : 2.40:1
Frame rate mode : Constant
Frame rate : 25.000 FPS
Color space : YUV
Chroma subsampling : 4:2:0
Bit depth : 8 bits
Scan type : Progressive
Bits/(Pixel*Frame) : 0.064
Stream size : 756 MiB (94%)
Default : Yes
Forced : No
Color range : Limited
Color primaries : BT.709
Transfer characteristics : BT.709
Matrix coefficients : BT.709

Audio
ID : 1
Format : AAC LC SBR
Commercial name : HE-AAC
Format settings : Explicit
Codec ID : A_AAC-2
Duration : 1 h 37 min
Bit rate : 64.0 kb/s
Channel(s) : 2 channels
Channel layout : L R
Sampling rate : 48.0 kHz
Frame rate : 23.438 FPS (2048 SPF)
Compression mode : Lossy
Delay relative to video : 31 ms
Stream size : 44.6 MiB (6%)
Language : German
Default : Yes
Forced : No

Text
ID : 2
Format : UTF-8
Codec ID : S_TEXT/UTF8
Codec ID/Info : UTF-8 Plain Text
Duration : 1 h 28 min
Bit rate : 24 b/s
Count of elements : 595
Stream size : 15.7 KiB (0%)
Title : SDH
Language : English
Default : Yes
Forced : No

[collapse]
Download Link(s)

Download

Direct download files get automatically deleted after a month or so. Posted on : 11/21/2018

[collapse]
Magnet Link

Magnet

Blue.My.Mind.2017.GERMAN.1080p.AMZN.WEBRip.DDP5.1.x264-NTG- 3.29 GB

[collapse]

You may also like...

error: nah :p~