Blue World Order (2017)

Action, Adventure, Fantasy | 14 November 2017 (Australia)

The film is set in a post-apocalyptic world in which civilisation has crumbled. A massive electromagnetic pulse has killed all children on the planet with the exception of Molly (Billie Rutherford), the daughter of Jake Slater (Jake Ryan).

Watch trailer

Media information

General
Format : Matroska
Format version : Version 4 / Version 2
File size : 920 MiB
Duration : 1 h 55 min
Overall bit rate : 1 115 kb/s
Movie name : Blue.World.Order.2017.720p.WEB-DL.2CH.x264.AVC
Encoded date : UTC 2018-07-19 08:44:32
Writing application : mkvmerge v25.0.0 (‘Prog Noir’) 32-bit
Writing library : libebml v1.3.6 + libmatroska v1.4.9

Video
ID : 1
Format : AVC
Format/Info : Advanced Video Codec
Format profile : [email protected]
Format settings : CABAC / 4 Ref Frames
Format settings, CABAC : Yes
Format settings, RefFrames : 4 frames
Codec ID : V_MPEG4/ISO/AVC
Duration : 1 h 55 min
Bit rate : 1 000 kb/s
Width : 1 280 pixels
Height : 544 pixels
Display aspect ratio : 2.35:1
Frame rate mode : Constant
Frame rate : 23.976 (24000/1001) FPS
Color space : YUV
Chroma subsampling : 4:2:0
Bit depth : 8 bits
Scan type : Progressive
Bits/(Pixel*Frame) : 0.060
Stream size : 813 MiB (88%)
Default : Yes
Forced : No
Color range : Limited
Color primaries : BT.709
Transfer characteristics : BT.709
Matrix coefficients : BT.709

Audio
ID : 2
Format : AAC
Format/Info : Advanced Audio Codec
Format profile : HE-AAC / LC
Format settings : NBC
Codec ID : A_AAC-5
Duration : 1 h 55 min
Bit rate : 128 kb/s
Channel(s) : 2 channels
Channel positions : Front: L R
Sampling rate : 48.0 kHz / 24.0 kHz
Frame rate : 23.438 FPS (1024 SPF)
Compression mode : Lossy
Delay relative to video : -105 ms
Stream size : 106 MiB (11%)
Language : English
Default : Yes
Forced : No

Text
ID : 3
Format : ASS
Codec ID : S_TEXT/ASS
Codec ID/Info : Advanced Sub Station Alpha
Duration : 1 h 54 min
Bit rate : 93 b/s
Count of elements : 1659
Compression mode : Lossless
Stream size : 78.6 KiB (0%)
Language : English
Default : No
Forced : No

[collapse]
Download Link(s)

Download

Direct download files get automatically deleted after a month or so. Posted on : 07/19/2018

[collapse]
Magnet Link

Magnet

Source : Blue.World.Order.2017.1080p.AMZN.WEBRip.DDP5.1.x264-NTG-5.42 GB

[collapse]

You may also like...

error: nah :p~