Body of Lies (2008)

R | 2h 8min | Action, Drama, Romance | 10 October 2008 (USA)

A CIA agent on the ground in Jordan hunts down a powerful terrorist leader while being caught between the unclear intentions of his American supervisors and Jordan Intelligence.

Watch trailer

Media information

General
Format : Matroska
Format version : Version 4 / Version 2
File size : 521 MiB
Duration : 2 h 8 min
Overall bit rate : 568 kb/s
Movie name : Body.Of.Lies.720p.BluRay.2CH.x264.AVC
Encoded date : UTC 2018-03-25 13:54:51
Writing application : mkvmerge v21.0.0 (‘Tardigrades Will Inherit The Earth’) 32-bit
Writing library : libebml v1.3.5 + libmatroska v1.4.8

Video
ID : 1
Format : AVC
Format/Info : Advanced Video Codec
Format profile : [email protected]
Format settings : CABAC / 16 Ref Frames
Format settings, CABAC : Yes
Format settings, RefFrames : 16 frames
Codec ID : V_MPEG4/ISO/AVC
Duration : 2 h 8 min
Bit rate : 500 kb/s
Width : 976 pixels
Height : 416 pixels
Display aspect ratio : 2.35:1
Frame rate mode : Constant
Frame rate : 23.976 (24000/1001) FPS
Color space : YUV
Chroma subsampling : 4:2:0
Bit depth : 8 bits
Scan type : Progressive
Bits/(Pixel*Frame) : 0.051
Stream size : 476 MiB (91%)
Writing library : x264 core 65 r1074M b6bb3d4
Language : English
Default : Yes
Forced : No

Audio
ID : 2
Format : AAC
Format/Info : Advanced Audio Codec
Format profile : HE-AAC / LC
Format settings : Explicit
Codec ID : A_AAC-2
Duration : 2 h 8 min
Bit rate : 48.0 kb/s
Channel(s) : 2 channels
Channel positions : Front: L R
Sampling rate : 48.0 kHz / 24.0 kHz
Frame rate : 23.438 FPS (1024 SPF)
Compression mode : Lossy
Stream size : 43.4 MiB (8%)
Default : Yes
Forced : No

Text
ID : 3
Format : UTF-8
Codec ID : S_TEXT/UTF8
Codec ID/Info : UTF-8 Plain Text
Duration : 2 h 0 min
Bit rate : 88 b/s
Count of elements : 1730
Stream size : 78.1 KiB (0%)
Default : Yes
Forced : No

[collapse]
Download Link(s)

Download

[RE-UP] Direct download files get automatically deleted after a month or so. Posted on : 03/25/2018

[collapse]
Magnet Link

Magnet

Source : Body.Of.Lies.2008.1080p.BluRay.x264-ADHD-7.95 GB

[collapse]

You may also like...

error: nah :p~