Book Club (2018)

PG-13 | 1h 44min | Comedy, Drama, Romance | 18 May 2018 (USA)

Four lifelong friends have their lives forever changed after reading 50 Shades of Grey in their monthly book club.

Watch trailer

Media information

General
Format : Matroska
Format version : Version 4 / Version 2
File size : 701 MiB
Duration : 1 h 43 min
Overall bit rate : 944 kb/s
Movie name : Book.Club.2018.720p.BrRip.2CH.x265.HEVC
Encoded date : UTC 2018-08-11 19:04:58
Writing application : mkvmerge v25.0.0 (‘Prog Noir’) 32-bit
Writing library : libebml v1.3.6 + libmatroska v1.4.9

Video
ID : 1
Format : HEVC
Format/Info : High Efficiency Video Coding
Format profile : [email protected]@Main
Codec ID : V_MPEGH/ISO/HEVC
Duration : 1 h 43 min
Bit rate : 874 kb/s
Width : 1 280 pixels
Height : 536 pixels
Display aspect ratio : 2.40:1
Frame rate mode : Constant
Frame rate : 23.976 (24000/1001) FPS
Color space : YUV
Chroma subsampling : 4:2:0
Bit depth : 8 bits
Bits/(Pixel*Frame) : 0.053
Stream size : 649 MiB (93%)
Default : Yes
Forced : No

Audio
ID : 2
Format : AAC
Format/Info : Advanced Audio Codec
Format profile : HE-AAC / LC
Format settings : Explicit
Codec ID : A_AAC-2
Duration : 1 h 43 min
Bit rate : 66.2 kb/s
Channel(s) : 2 channels
Channel positions : Front: L R
Sampling rate : 48.0 kHz / 24.0 kHz
Frame rate : 23.438 FPS (1024 SPF)
Compression mode : Lossy
Delay relative to video : 23 ms
Stream size : 49.9 MiB (7%)
Language : English
Default : Yes
Forced : No

Text #1
ID : 3
Format : UTF-8
Codec ID : S_TEXT/UTF8
Codec ID/Info : UTF-8 Plain Text
Duration : 1 h 37 min
Bit rate : 80 b/s
Count of elements : 1822
Stream size : 57.5 KiB (0%)
Title : ENG
Language : English
Default : Yes
Forced : No

Text #2
ID : 4
Format : UTF-8
Codec ID : S_TEXT/UTF8
Codec ID/Info : UTF-8 Plain Text
Duration : 1 h 36 min
Bit rate : 88 b/s
Count of elements : 1974
Stream size : 62.3 KiB (0%)
Title : ENG SDH
Language : English
Default : No
Forced : No

[collapse]
Download Link(s)

Download

Direct download files get automatically deleted after a month or so. Posted on : 08/11/2018

[collapse]
Magnet Link

Magnet

Source : Book.Club.2018.1080p.BluRay.x264-DRONES-7.68 GB

[collapse]

You may also like...

error: nah :p~