Buffalo Boys (2018)

1h 42min | Action | 19 July 2018 (Indonesia)

Two brothers named Jamar and Suwo came back to the land of Java to avenge their father, who was a Sultan, after years of exile in America.

Watch trailer

Media information

General
Format : Matroska
Format version : Version 4
File size : 856 MiB
Duration : 1 h 42 min
Overall bit rate : 1 166 kb/s
Movie name : Buffalo.Boys.2018.Indonesian.720p.WEB-DL.2CH.x264.AVC
Encoded date : UTC 2019-04-13 14:52:48
Writing application : mkvmerge v33.0.0 (‘A Little Bit of Madness’) 32-bit
Writing library : libebml v1.3.7 + libmatroska v1.5.0

Video
ID : 1
Format : AVC
Format/Info : Advanced Video Codec
Format profile : [email protected]
Format settings : CABAC / 8 Ref Frames
Format settings, CABAC : Yes
Format settings, RefFrames : 8 frames
Codec ID : V_MPEG4/ISO/AVC
Duration : 1 h 42 min
Bit rate : 1 100 kb/s
Width : 1 280 pixels
Height : 540 pixels
Display aspect ratio : 2.40:1
Frame rate mode : Constant
Frame rate : 24.000 FPS
Color space : YUV
Chroma subsampling : 4:2:0
Bit depth : 8 bits
Scan type : Progressive
Bits/(Pixel*Frame) : 0.066
Stream size : 807 MiB (94%)
Default : Yes
Forced : No

Audio
ID : 2
Format : AAC LC SBR
Commercial name : HE-AAC
Format settings : Explicit
Codec ID : A_AAC-2
Duration : 1 h 42 min
Bit rate : 64.0 kb/s
Channel(s) : 2 channels
Channel layout : L R
Sampling rate : 48.0 kHz
Frame rate : 23.438 FPS (2048 SPF)
Compression mode : Lossy
Delay relative to video : 43 ms
Stream size : 47.0 MiB (5%)
Title : Indonesian
Language : Indonesian
Default : Yes
Forced : No

Text #1
ID : 3
Format : UTF-8
Codec ID : S_TEXT/UTF8
Codec ID/Info : UTF-8 Plain Text
Duration : 1 h 37 min
Bit rate : 20 b/s
Count of elements : 662
Stream size : 14.8 KiB (0%)
Title : English [Forced]
Language : English
Default : No
Forced : Yes

Text #2
ID : 4
Format : UTF-8
Codec ID : S_TEXT/UTF8
Codec ID/Info : UTF-8 Plain Text
Duration : 1 h 37 min
Bit rate : 35 b/s
Count of elements : 1068
Stream size : 25.5 KiB (0%)
Title : English [SDH]
Language : English
Default : Yes
Forced : No

[collapse]
Download Link(s)

Download

Direct download files get automatically deleted after a month or so. Posted on : 04/13/2019

[collapse]
Magnet Link

Magnet

Buffalo.Boys.2018.1080p.NF.WEB-DL.DD5.1.H264-CMRG-2.0 GB

[collapse]

You may also like...

error: nah :p~