Buoyancy (2019)

Not Rated | 1h 33min | Crime, Drama | 26 September 2019 (Australia)

14-year-old Chakra is sold as a slave labourer to the captain of a Thai fishing vessel. The captain’s rule on board is cruel and arbitrary.

Watch trailer

Media information

General
Format : Matroska
Format version : Version 4
File size : 420 MiB
Duration : 1 h 32 min
Overall bit rate : 638 kb/s
Movie name : Buoyancy.2019.THAI.720p.WEBRip.2CH.x265.HEVC

Video
ID : 1
Format : HEVC
Format/Info : High Efficiency Video Coding
Format profile : Main[email protected]@Main
Codec ID : V_MPEGH/ISO/HEVC
Duration : 1 h 32 min
Bit rate : 556 kb/s
Width : 1 280 pixels
Height : 534 pixels
Display aspect ratio : 2.40:1
Frame rate mode : Constant
Frame rate : 24.000 FPS
Color space : YUV
Chroma subsampling : 4:2:0
Bit depth : 8 bits
Bits/(Pixel*Frame) : 0.034
Stream size : 366 MiB (87%)
Default : Yes
Forced : No
Color range : Limited
Color primaries : BT.709
Transfer characteristics : BT.709
Matrix coefficients : BT.709

Audio
ID : 2
Format : AAC LC
Codec ID : A_AAC-2
Duration : 1 h 32 min
Bit rate : 79.8 kb/s
Channel(s) : 2 channels
Channel layout : L R
Sampling rate : 48.0 kHz
Frame rate : 46.875 FPS (1024 SPF)
Compression mode : Lossy
Delay relative to video : -21 ms
Stream size : 52.5 MiB (13%)
Title : Stereo
Language : Thai
Default : Yes
Forced : No

Text #1
ID : 3
Format : UTF-8
Codec ID : S_TEXT/UTF8
Codec ID/Info : UTF-8 Plain Text
Duration : 1 h 28 min
Bit rate : 8 b/s
Count of elements : 272
Stream size : 5.53 KiB (0%)
Language : English
Default : Yes
Forced : No

Text #2
ID : 4
Format : UTF-8
Codec ID : S_TEXT/UTF8
Codec ID/Info : UTF-8 Plain Text
Duration : 1 h 28 min
Bit rate : 9 b/s
Count of elements : 272
Stream size : 6.37 KiB (0%)
Language : German
Default : No
Forced : No

Text #3
ID : 5
Format : UTF-8
Codec ID : S_TEXT/UTF8
Codec ID/Info : UTF-8 Plain Text
Duration : 1 h 28 min
Bit rate : 9 b/s
Count of elements : 272
Stream size : 6.06 KiB (0%)
Language : Portuguese
Default : No
Forced : No

Text #4
ID : 6
Format : UTF-8
Codec ID : S_TEXT/UTF8
Codec ID/Info : UTF-8 Plain Text
Duration : 1 h 25 min
Bit rate : 11 b/s
Count of elements : 285
Stream size : 7.29 KiB (0%)
Language : Turkish
Default : No
Forced : No

[collapse]
Download Link(s)

Download

Direct download files get automatically deleted after a month or so. Posted on : 03/252020

[collapse]
Magnet Link

Magnet

Buoyancy.2019.THAI.1080p.WEBRip.x264-VXT-1.75 GB

[collapse]

You may also like...

error: nah :p~