Can You Ever Forgive Me? (2018)

R | 1h 46min | Biography, Comedy, Crime | 2 November 2018 (South Africa)

When Lee Israel falls out of step with current tastes, she turns her art form to deception.

Watch trailer

Media information

General
Format : Matroska
Format version : Version 4
File size : 576 MiB
Duration : 1 h 46 min
Overall bit rate : 757 kb/s
Movie name : Can.You.Ever.Forgive.Me.2018.720p.WEB-DL.2CH.x265.HEVC
Encoded date : UTC 2019-02-09 16:07:24
Writing application : mkvmerge v31.0.0 (‘Dolores In A Shoestand’) 32-bit
Writing library : libebml v1.3.6 + libmatroska v1.4.9

Video
ID : 1
Format : HEVC
Format/Info : High Efficiency Video Coding
Format profile : [email protected]@Main
Codec ID : V_MPEGH/ISO/HEVC
Duration : 1 h 46 min
Bit rate : 688 kb/s
Width : 1 280 pixels
Height : 536 pixels
Display aspect ratio : 2.40:1
Frame rate mode : Constant
Frame rate : 23.976 (24000/1001) FPS
Color space : YUV
Chroma subsampling : 4:2:0
Bit depth : 8 bits
Bits/(Pixel*Frame) : 0.042
Stream size : 524 MiB (91%)
Default : Yes
Forced : No

Audio
ID : 2
Format : AAC LC SBR
Commercial name : HE-AAC
Format settings : Explicit
Codec ID : A_AAC-2
Duration : 1 h 46 min
Bit rate : 66.2 kb/s
Channel(s) : 2 channels
Channel layout : L R
Sampling rate : 48.0 kHz
Frame rate : 23.438 FPS (2048 SPF)
Compression mode : Lossy
Delay relative to video : 23 ms
Stream size : 50.5 MiB (9%)
Language : English
Default : Yes
Forced : No

Text
ID : 3
Format : UTF-8
Codec ID : S_TEXT/UTF8
Codec ID/Info : UTF-8 Plain Text
Duration : 1 h 41 min
Bit rate : 58 b/s
Count of elements : 1509
Stream size : 43.4 KiB (0%)
Language : English
Default : Yes
Forced : No

[collapse]
Download Link(s)

Download

Direct download files get automatically deleted after a month or so. Posted on : 02/09/2019

[collapse]
Magnet Link

Magnet

Can.You.Ever.Forgive.Me.2018.1080p.WEB-DL.DD5.1.H264-FGT-3.67 GB

[collapse]

You may also like...

error: nah :p~