Can You Keep a Secret? (2019)

1h 34min | Comedy, Romance | 16 August 2019 (Turkey)

Thinking they’re about to crash, Emma spills her secrets to a stranger on a plane. At least, she thought he was a stranger…Until she later meets Jack, her company’s young CEO, who now knows every humiliating detail about her. Based on the blockbuster NYT bestseller.

Watch trailer

Media information

General
Format : Matroska
Format version : Version 4
File size : 557 MiB
Duration : 1 h 34 min
Overall bit rate : 823 kb/s
Movie name : Can.You.Keep.A.Secret.2019.720p.WEB-DL.2CH.x265.HEVC
Encoded date : UTC 2019-09-13 16:24:56
Writing application : mkvmerge v37.0.0 (‘Leave It’) 32-bit
Writing library : libebml v1.3.9 + libmatroska v1.5.2

Video
ID : 1
Format : HEVC
Format/Info : High Efficiency Video Coding
Format profile : [email protected]@Main
Codec ID : V_MPEGH/ISO/HEVC
Duration : 1 h 34 min
Bit rate : 758 kb/s
Width : 1 280 pixels
Height : 688 pixels
Display aspect ratio : 1.85:1
Frame rate mode : Constant
Frame rate : 24.000 FPS
Color space : YUV
Chroma subsampling : 4:2:0
Bit depth : 8 bits
Bits/(Pixel*Frame) : 0.036
Stream size : 513 MiB (92%)
Default : Yes
Forced : No
Color range : Limited
Color primaries : BT.709
Transfer characteristics : BT.709
Matrix coefficients : BT.709

Audio
ID : 2
Format : AAC LC SBR
Commercial name : HE-AAC
Format settings : Explicit
Codec ID : A_AAC-2
Duration : 1 h 34 min
Bit rate : 63.3 kb/s
Channel(s) : 2 channels
Channel layout : L R
Sampling rate : 48.0 kHz
Frame rate : 23.438 FPS (2048 SPF)
Compression mode : Lossy
Delay relative to video : 23 ms
Stream size : 42.8 MiB (8%)
Language : English
Default : Yes
Forced : No

Text
ID : 3
Format : UTF-8
Codec ID : S_TEXT/UTF8
Codec ID/Info : UTF-8 Plain Text
Duration : 1 h 33 min
Bit rate : 102 b/s
Count of elements : 2166
Stream size : 70.2 KiB (0%)
Language : English
Default : Yes
Forced : No

[collapse]
Download Link(s)

Download

[RE-UP]-Direct download files get automatically deleted after a month or so. Posted on: 11/06/2019

[collapse]
Magnet Link

Magnet

Can.You.Keep.A.Secret.2019.1080p.WEB-DL.DD5.1.H264-FGT-3.69 GB

[collapse]

You may also like...

error: nah :p~