Captain America: Civil War (2016)

PG-13 | 2h 27min | Action, Adventure, Sci-Fi | 6 May 2016 (USA)

Political involvement in the Avengers’ affairs causes a rift between Captain America and Iron Man.

Watch trailer

Media information

General
Format : Matroska
Format version : Version 4
File size : 1.20 GiB
Duration : 2 h 27 min
Overall bit rate : 1 164 kb/s
Movie name : Captain.America.Civil.War.2016.720p.10bit.BluRay.6CH.x265.HEVC
Encoded date : UTC 2019-04-20 13:40:49
Writing application : mkvmerge v33.1.0 (‘Primrose’) 32-bit
Writing library : libebml v1.3.7 + libmatroska v1.5.0

Video
ID : 1
Format : HEVC
Format/Info : High Efficiency Video Coding
Format profile : Main [email protected]@Main
Codec ID : V_MPEGH/ISO/HEVC
Duration : 2 h 27 min
Bit rate : 957 kb/s
Width : 1 280 pixels
Height : 536 pixels
Display aspect ratio : 2.40:1
Frame rate mode : Constant
Frame rate : 23.976 (24000/1001) FPS
Color space : YUV
Chroma subsampling : 4:2:0
Bit depth : 10 bits
Bits/(Pixel*Frame) : 0.058
Stream size : 1 011 MiB (82%)
Default : Yes
Forced : No
Color range : Limited
Color primaries : BT.709
Transfer characteristics : BT.709
Matrix coefficients : BT.709

Audio
ID : 2
Format : AAC LC SBR
Commercial name : HE-AAC
Format settings : Explicit
Codec ID : A_AAC-2
Duration : 2 h 27 min
Bit rate : 205 kb/s
Channel(s) : 6 channels
Channel layout : C L R Ls Rs LFE
Sampling rate : 48.0 kHz
Frame rate : 23.438 FPS (2048 SPF)
Compression mode : Lossy
Delay relative to video : 23 ms
Stream size : 216 MiB (18%)
Language : English
Default : Yes
Forced : No

Text #1
ID : 3
Format : UTF-8
Codec ID : S_TEXT/UTF8
Codec ID/Info : UTF-8 Plain Text
Duration : 2 h 26 min
Bit rate : 50 b/s
Count of elements : 1793
Stream size : 54.3 KiB (0%)
Title : ENG
Language : English
Default : Yes
Forced : No

Text #2
ID : 4
Format : UTF-8
Codec ID : S_TEXT/UTF8
Codec ID/Info : UTF-8 Plain Text
Duration : 2 h 26 min
Bit rate : 54 b/s
Count of elements : 2033
Stream size : 59.1 KiB (0%)
Title : ENG SDH
Language : English
Default : No
Forced : No

[collapse]
Download Link(s)

Download

Direct download files get automatically deleted after a month or so. Posted on : 04/20/2019

[collapse]
Magnet Link

Magnet

Captain.America.Civil.War.2016.1080p.BluRay.REMUX.AVC.DTS-HD.MA.7.1-FGT-35.25 GB

[collapse]

You may also like...

error: nah :p~