Cargo (2019)

1h 59min | Fantasy, Horror, Sci-Fi | 9 September 2020 (USA)

A young female astronaut, who joins a reclusive astronaut aboard a spaceship, struggles with her job as she interacts with mysterious Cargos that appear on the ship.

Watch trailer

Media information

General
Format : Matroska
Format version : Version 4
File size : 696 MiB
Duration : 1 h 53 min
Overall bit rate : 861 kb/s
Movie name : Cargo.2020.Hindi.720p.10bit.WEBRip.2CH.x265.HEVC

Video
ID : 1
Format : HEVC
Format/Info : High Efficiency Video Coding
Format profile : Main [email protected]@Main
Codec ID : V_MPEGH/ISO/HEVC
Duration : 1 h 53 min
Bit rate : 701 kb/s
Width : 1 236 pixels
Height : 540 pixels
Display aspect ratio : 2.25:1
Frame rate mode : Constant
Frame rate : 30.000 FPS
Color space : YUV
Chroma subsampling : 4:2:0
Bit depth : 10 bits
Bits/(Pixel*Frame) : 0.035
Stream size : 567 MiB (81%)
Default : Yes
Forced : No
Color range : Limited
Color primaries : BT.709
Transfer characteristics : BT.709
Matrix coefficients : BT.709

Audio
ID : 2
Format : AAC LC
Codec ID : A_AAC-2
Duration : 1 h 53 min
Bit rate : 157 kb/s
Channel(s) : 2 channels
Channel layout : L R
Sampling rate : 44.1 kHz
Frame rate : 43.066 FPS (1024 SPF)
Compression mode : Lossy
Delay relative to video : -21 ms
Stream size : 127 MiB (18%)
Language : Hindi
Default : Yes
Forced : No

Text
ID : 3
Format : UTF-8
Codec ID : S_TEXT/UTF8
Codec ID/Info : UTF-8 Plain Text
Duration : 1 h 44 min
Bit rate : 63 b/s
Count of elements : 1529
Stream size : 48.1 KiB (0%)
Language : English
Default : Yes
Forced : No

[collapse]
Download Link(s)

Download

Direct download files get automatically deleted after a month or so. Posted on : 09/11/2020

[collapse]
Magnet Link

Magnet

Cargo-2020-Hindi-720p-NF-WEBRip-x264-AAC-964.2 MB

[collapse]

You may also like...

error: nah :p~