Casino Royale (2006)

PG-13 | 2h 24min | Action, Adventure, Thriller | 17 November 2006 (USA)

Armed with a license to kill, Secret Agent James Bond sets out on his first mission as 007, and must defeat a private banker to terrorists in a high stakes game of poker at Casino Royale, Montenegro, but things are not what they seem.

Watch trailer

Media information

General
Format : Matroska
Format version : Version 4
File size : 1.63 GiB
Duration : 2 h 24 min
Overall bit rate : 1 615 kb/s
Movie name : Casino.Royale.2006.1080p.BluRay.2CH.x265.HEVC
Encoded date : UTC 2018-11-11 20:17:18
Writing application : mkvmerge v28.2.0 (‘The Awakening’) 32-bit
Writing library : libebml v1.3.6 + libmatroska v1.4.9

Video
ID : 1
Format : HEVC
Format/Info : High Efficiency Video Coding
Format profile : [email protected]@Main
Codec ID : V_MPEGH/ISO/HEVC
Duration : 2 h 24 min
Bit rate : 1 453 kb/s
Width : 1 920 pixels
Height : 800 pixels
Display aspect ratio : 2.40:1
Frame rate mode : Constant
Frame rate : 23.976 (24000/1001) FPS
Color space : YUV
Chroma subsampling : 4:2:0
Bit depth : 8 bits
Bits/(Pixel*Frame) : 0.039
Stream size : 1.46 GiB (90%)
Default : Yes
Forced : No
Color range : Limited
Color primaries : BT.709
Transfer characteristics : BT.709
Matrix coefficients : BT.709

Audio
ID : 2
Format : AAC LC
Codec ID : A_AAC-2
Duration : 2 h 24 min
Bit rate : 160 kb/s
Channel(s) : 2 channels
Channel layout : L R
Sampling rate : 48.0 kHz
Frame rate : 46.875 FPS (1024 SPF)
Compression mode : Lossy
Delay relative to video : -21 ms
Stream size : 165 MiB (10%)
Title : Stereo
Language : English
Default : Yes
Forced : No

Text
ID : 3
Format : ASS
Codec ID : S_TEXT/ASS
Duration : 2 h 18 min
Bit rate : 54 b/s
Count of elements : 1042
Compression mode : Lossless
Stream size : 55.9 KiB (0%)
Language : English
Default : Yes
Forced : Yes

[collapse]
Download Link(s)

Part01 Part02

Direct download files get automatically deleted after a month or so. Posted on : 11/12/2018

[collapse]
Magnet Link

Magnet

Casino.Royale.2006.1080p.BluRay.x264-hV-12.32 GB

[collapse]

You may also like...

error: nah :p~