Cats & Dogs 3: Paws Unite (2020)

1h 24min | Action, Comedy, Family | 15 September 2020 (USA)

Gwen the Cat and Roger the Dog are secret agents who covertly protect and save the world without humans ever finding out. Their partnership is due to the Great Truce, which has stopped dog and cat hostility for a decade. But the long-standing peace is threatened when a supervillain parrot discovers a way to manipulate wireless frequencies that only dogs and cats can hear. Will the heroes be able to stop the foul fowl, or will he cause a cat-a-strophe between the species?

Watch trailer

Media information

General
Format : Matroska
Format version : Version 4
File size : 612 MiB
Duration : 1 h 24 min
Overall bit rate : 1 018 kb/s
Movie name : Cats.and.Dogs.3.Paws.Unite.2020.720p.WEBRip.2CH.x265.HEVC

Video
ID : 1
Format : HEVC
Format/Info : High Efficiency Video Coding
Format profile : [email protected]@Main
Codec ID : V_MPEGH/ISO/HEVC
Duration : 1 h 24 min
Bit rate : 943 kb/s
Width : 1 280 pixels
Height : 720 pixels
Display aspect ratio : 16:9
Frame rate mode : Constant
Frame rate : 23.976 (24000/1001) FPS
Color space : YUV
Chroma subsampling : 4:2:0
Bit depth : 8 bits
Bits/(Pixel*Frame) : 0.043
Stream size : 567 MiB (93%)
Default : Yes
Forced : No
Color range : Limited
Color primaries : BT.709
Transfer characteristics : BT.709
Matrix coefficients : BT.709

Audio
ID : 2
Format : AAC LC SBR
Commercial name : HE-AAC
Format settings : Explicit
Codec ID : A_AAC-2
Duration : 1 h 24 min
Bit rate : 72.0 kb/s
Channel(s) : 2 channels
Channel layout : L R
Sampling rate : 48.0 kHz
Frame rate : 23.438 FPS (2048 SPF)
Compression mode : Lossy
Delay relative to video : 23 ms
Stream size : 44.0 MiB (7%)
Language : English
Default : Yes
Forced : No

Text
ID : 3
Format : UTF-8
Codec ID : S_TEXT/UTF8
Codec ID/Info : UTF-8 Plain Text
Duration : 1 h 23 min
Bit rate : 83 b/s
Count of elements : 1826
Stream size : 50.8 KiB (0%)
Language : English
Default : Yes
Forced : No

[collapse]
Download Link(s)

Download

Direct download files get automatically deleted after a month or so. Posted on : 09/15/2020

[collapse]
Magnet Link

Magnet

Cats-and-Dogs-3-Paws-Unite-2020-1080p-WEB-DL-H264-AC3-EVO-3.9 GB

[collapse]

You may also like...

error: nah :p~