Chimera Strain (2018)

R | 1h 20min | Drama, Sci-Fi, Thriller | April 2018 (USA)

A brilliant but disturbed scientist freezes his children alive, while he races to cure their deadly genetic disease by decoding the DNA of the immortal Turritopsis jellyfish.

Watch trailer

Media information

General
Format : Matroska
Format version : Version 4
File size : 651 MiB
Duration : 1 h 20 min
Overall bit rate : 1 137 kb/s
Movie name : Chimera.Strain.2018.720p.WEB-DL.2CH.x264.AVC
Encoded date : UTC 2019-03-15 11:47:00
Writing application : mkvmerge v32.0.0 (‘Astral Progressions’) 32-bit
Writing library : libebml v1.3.7 + libmatroska v1.5.0

Video
ID : 2
Format : AVC
Format/Info : Advanced Video Codec
Format profile : [email protected]
Format settings : CABAC / 5 Ref Frames
Format settings, CABAC : Yes
Format settings, RefFrames : 5 frames
Codec ID : V_MPEG4/ISO/AVC
Duration : 1 h 20 min
Bit rate : 1 071 kb/s
Width : 1 280 pixels
Height : 474 pixels
Display aspect ratio : 2.700
Frame rate mode : Constant
Frame rate : 23.976 (24000/1001) FPS
Color space : YUV
Chroma subsampling : 4:2:0
Bit depth : 8 bits
Scan type : Progressive
Bits/(Pixel*Frame) : 0.074
Stream size : 613 MiB (94%)
Default : Yes
Forced : No

Audio
ID : 3
Format : AAC LC SBR
Commercial name : HE-AAC
Format settings : Explicit
Codec ID : A_AAC-2
Duration : 1 h 20 min
Bit rate : 64.0 kb/s
Channel(s) : 2 channels
Channel layout : L R
Sampling rate : 48.0 kHz
Frame rate : 23.438 FPS (2048 SPF)
Compression mode : Lossy
Delay relative to video : 1 ms
Stream size : 36.7 MiB (6%)
Language : English
Default : Yes
Forced : No

Text
ID : 1
Format : UTF-8
Codec ID : S_TEXT/UTF8
Codec ID/Info : UTF-8 Plain Text
Duration : 1 h 15 min
Bit rate : 38 b/s
Count of elements : 612
Stream size : 21.5 KiB (0%)
Language : English
Default : Yes
Forced : No

[collapse]
Download Link(s)

Download

Direct download files get automatically deleted after a month or so. Posted on : 03/15/2019

[collapse]
Magnet Link

Magnet

Chimera.Strain.2018.1080p.AMZN.WEBRip.DDP5.1.x264-NTG-5.05 GB

[collapse]

You may also like...

error: nah :p~