Churchill (2017)

PG | 1h 45min | Biography, Drama, History | 2 June 2017 (USA)

96 hours before the World War II invasion of Normandy, British Prime Minister Winston Churchill struggles with his severe reservations with Operation Overlord and his increasingly marginalized role in the war effort.

Watch trailer

Media information

General
Format : Matroska
Format version : Version 4
File size : 762 MiB
Duration : 1 h 45 min
Overall bit rate : 1 015 kb/s
Movie name : Churchill.2017.720p.10bit.BluRay.6CH.x265.HEVC
Encoded date : UTC 2019-01-06 14:08:00
Writing application : mkvmerge v30.1.0 (‘Forever And More’) 32-bit
Writing library : libebml v1.3.6 + libmatroska v1.4.9

Video
ID : 1
Format : HEVC
Format/Info : High Efficiency Video Coding
Format profile : Main [email protected]@Main
Codec ID : V_MPEGH/ISO/HEVC
Duration : 1 h 45 min
Bit rate : 808 kb/s
Width : 1 280 pixels
Height : 536 pixels
Display aspect ratio : 2.40:1
Frame rate mode : Constant
Frame rate : 24.000 FPS
Color space : YUV
Chroma subsampling : 4:2:0
Bit depth : 10 bits
Bits/(Pixel*Frame) : 0.049
Stream size : 607 MiB (80%)
Default : Yes
Forced : No

Audio
ID : 2
Format : AAC LC SBR
Commercial name : HE-AAC
Format settings : Explicit
Codec ID : A_AAC-2
Duration : 1 h 45 min
Bit rate : 205 kb/s
Channel(s) : 6 channels
Channel layout : C L R Ls Rs LFE
Sampling rate : 48.0 kHz
Frame rate : 23.438 FPS (2048 SPF)
Compression mode : Lossy
Delay relative to video : 23 ms
Stream size : 154 MiB (20%)
Language : English
Default : Yes
Forced : No

Text
ID : 3
Format : UTF-8
Codec ID : S_TEXT/UTF8
Codec ID/Info : UTF-8 Plain Text
Duration : 1 h 36 min
Bit rate : 52 b/s
Count of elements : 1014
Stream size : 37.4 KiB (0%)
Language : English
Default : Yes
Forced : No

[collapse]
Download Link(s)

Download

Direct download files get automatically deleted after a month or so. Posted on : 01/06/2019

[collapse]
Magnet Link

Magnet

Churchill.2017.1080p.BluRay.REMUX.AVC.DTS-HD.MA.5.1-FGT-25.18 GB

[collapse]

You may also like...

error: nah :p~