City of Angels (1998)

 

PG-13 | 1h 54min | Drama, Fantasy, Romance | 10 April 1998 (USA)

Inspired by the modern classic, Wings of Desire, City involves an angel (Cage) who is spotted by a doctor in an operating room. Franz plays Cage’s buddy who somehow knows a lot about angels.

Watch trailer

Media information

General
Format : Matroska
Format version : Version 4
File size : 482 MiB
Duration : 1 h 54 min
Overall bit rate : 590 kb/s
Movie name : City.of.Angels.1998.720p.BluRay.2CH.x265.HEVC
Encoded date : UTC 2018-09-10 06:33:19
Writing application : mkvmerge v26.0.0 (‘In The Game’) 32-bit
Writing library : libebml v1.3.6 + libmatroska v1.4.9

Video
ID : 1
Format : HEVC
Format/Info : High Efficiency Video Coding
Format profile : [email protected]@Main
Codec ID : V_MPEGH/ISO/HEVC
Duration : 1 h 54 min
Bit rate : 452 kb/s
Width : 1 280 pixels
Height : 534 pixels
Display aspect ratio : 2.40:1
Original display aspect ratio : 2.40:1
Frame rate mode : Constant
Frame rate : 23.976 (24000/1001) FPS
Color space : YUV
Chroma subsampling : 4:2:0
Bit depth : 8 bits
Bits/(Pixel*Frame) : 0.028
Stream size : 370 MiB (77%)
Default : Yes
Forced : No
Color range : Limited
Color primaries : BT.709
Transfer characteristics : BT.709
Matrix coefficients : BT.709

Audio
ID : 2
Format : AAC LC
Codec ID : A_AAC-2
Duration : 1 h 54 min
Bit rate : 96.0 kb/s
Channel(s) : 2 channels
Channel layout : L R
Sampling rate : 48.0 kHz
Frame rate : 46.875 FPS (1024 SPF)
Compression mode : Lossy
Delay relative to video : 20 ms
Stream size : 78.7 MiB (16%)
Title : Stereo
Language : English
Default : Yes
Forced : No

Text #1
ID : 3
Format : VobSub
Muxing mode : zlib
Codec ID : S_VOBSUB
Duration : 1 h 53 min
Bit rate : 6 205 b/s
Count of elements : 1093
Stream size : 5.05 MiB (1%)
Language : English
Default : Yes
Forced : Yes

Text #2
ID : 4
Format : VobSub
Muxing mode : zlib
Codec ID : S_VOBSUB
Duration : 1 h 53 min
Bit rate : 4 594 b/s
Count of elements : 976
Stream size : 3.74 MiB (1%)
Language : French
Default : No
Forced : No

Text #3
ID : 5
Format : VobSub
Muxing mode : zlib
Codec ID : S_VOBSUB
Duration : 1 h 53 min
Bit rate : 6 529 b/s
Count of elements : 1067
Stream size : 5.31 MiB (1%)
Language : German
Default : No
Forced : No

Text #4
ID : 6
Format : VobSub
Muxing mode : zlib
Codec ID : S_VOBSUB
Duration : 1 h 53 min
Bit rate : 5 908 b/s
Count of elements : 1069
Stream size : 4.81 MiB (1%)
Language : Italian
Default : No
Forced : No

Text #5
ID : 7
Format : VobSub
Muxing mode : zlib
Codec ID : S_VOBSUB
Duration : 1 h 53 min
Bit rate : 5 111 b/s
Count of elements : 1016
Stream size : 4.16 MiB (1%)
Language : Spanish
Default : No
Forced : No

Text #6
ID : 8
Format : VobSub
Muxing mode : zlib
Codec ID : S_VOBSUB
Duration : 1 h 53 min
Bit rate : 4 717 b/s
Count of elements : 1073
Stream size : 3.85 MiB (1%)
Language : Chinese
Default : No
Forced : No

Text #7
ID : 9
Format : VobSub
Muxing mode : zlib
Codec ID : S_VOBSUB
Duration : 1 h 53 min
Bit rate : 5 276 b/s
Count of elements : 1031
Stream size : 4.29 MiB (1%)
Language : Spanish
Default : No
Forced : No

Text #8
ID : 10
Format : VobSub
Muxing mode : zlib
Codec ID : S_VOBSUB
Duration : 1 h 53 min
Bit rate : 5 051 b/s
Count of elements : 1032
Stream size : 4.11 MiB (1%)
Language : Portuguese
Default : No
Forced : No

Text #9
ID : 11
Format : VobSub
Muxing mode : zlib
Codec ID : S_VOBSUB
Duration : 1 h 53 min
Bit rate : 5 052 b/s
Count of elements : 1019
Stream size : 4.11 MiB (1%)
Language : Czech
Default : No
Forced : No

Text #10
ID : 12
Format : VobSub
Muxing mode : zlib
Codec ID : S_VOBSUB
Duration : 1 h 53 min
Bit rate : 4 238 b/s
Count of elements : 971
Stream size : 3.45 MiB (1%)
Language : Polish
Default : No
Forced : No

Text #11
ID : 13
Format : VobSub
Muxing mode : zlib
Codec ID : S_VOBSUB
Duration : 1 h 53 min
Bit rate : 5 406 b/s
Count of elements : 871
Stream size : 4.40 MiB (1%)
Language : Romanian
Default : No
Forced : No

Text #12
ID : 14
Format : VobSub
Muxing mode : zlib
Codec ID : S_VOBSUB
Duration : 1 h 53 min
Bit rate : 5 192 b/s
Count of elements : 1006
Stream size : 4.22 MiB (1%)
Language : Russian
Default : No
Forced : No

[collapse]
Download Link(s)

Download

Direct download files get automatically deleted after a month or so. Posted on : 09/10/2018

[collapse]
Magnet Link

Magnet

City of Angels 1998 (1080p Bluray x265 HEVC 10bit AAC 5.1 Tigole) | File size: 2.24 GB (2,413,060,096 bytes)

[collapse]

Media information

General
Format : Matroska
Format version : Version 4
File size : 1.90 GiB
Duration : 1 h 54 min
Overall bit rate : 2 385 kb/s
Movie name : City.of.Angels.1998.1080p.10bit.BluRay.6CH.x265.HEVC
Encoded date : UTC 2018-09-09 19:48:36
Writing application : mkvmerge v26.0.0 (‘In The Game’) 32-bit
Writing library : libebml v1.3.6 + libmatroska v1.4.9

Video
ID : 1
Format : HEVC
Format/Info : High Efficiency Video Coding
Format profile : Main [email protected]@Main
Codec ID : V_MPEGH/ISO/HEVC
Duration : 1 h 54 min
Bit rate : 2 000 kb/s
Width : 1 920 pixels
Height : 800 pixels
Display aspect ratio : 2.40:1
Frame rate mode : Constant
Frame rate : 23.976 (24000/1001) FPS
Color space : YUV
Chroma subsampling : 4:2:0
Bit depth : 10 bits
Bits/(Pixel*Frame) : 0.054
Stream size : 1.60 GiB (84%)
Default : Yes
Forced : No

Audio
ID : 2
Format : AAC LC
Codec ID : A_AAC-2
Duration : 1 h 54 min
Bit rate : 343 kb/s
Channel(s) : 6 channels
Channel layout : C L R Ls Rs LFE
Sampling rate : 48.0 kHz
Frame rate : 46.875 FPS (1024 SPF)
Compression mode : Lossy
Delay relative to video : 20 ms
Stream size : 280 MiB (14%)
Language : English
Default : No
Forced : No

Text #1
ID : 3
Format : VobSub
Muxing mode : zlib
Codec ID : S_VOBSUB
Duration : 1 h 53 min
Bit rate : 6 205 b/s
Count of elements : 1093
Stream size : 5.05 MiB (0%)
Language : English
Default : No
Forced : No

Text #2
ID : 4
Format : VobSub
Muxing mode : zlib
Codec ID : S_VOBSUB
Duration : 1 h 53 min
Bit rate : 4 594 b/s
Count of elements : 976
Stream size : 3.74 MiB (0%)
Language : French
Default : No
Forced : No

Text #3
ID : 5
Format : VobSub
Muxing mode : zlib
Codec ID : S_VOBSUB
Duration : 1 h 53 min
Bit rate : 6 529 b/s
Count of elements : 1067
Stream size : 5.31 MiB (0%)
Language : German
Default : No
Forced : No

Text #4
ID : 6
Format : VobSub
Muxing mode : zlib
Codec ID : S_VOBSUB
Duration : 1 h 53 min
Bit rate : 5 908 b/s
Count of elements : 1069
Stream size : 4.81 MiB (0%)
Language : Italian
Default : No
Forced : No

Text #5
ID : 7
Format : VobSub
Muxing mode : zlib
Codec ID : S_VOBSUB
Duration : 1 h 53 min
Bit rate : 5 111 b/s
Count of elements : 1016
Stream size : 4.16 MiB (0%)
Language : Spanish
Default : No
Forced : No

Text #6
ID : 8
Format : VobSub
Muxing mode : zlib
Codec ID : S_VOBSUB
Duration : 1 h 53 min
Bit rate : 4 717 b/s
Count of elements : 1073
Stream size : 3.85 MiB (0%)
Language : Chinese
Default : No
Forced : No

Text #7
ID : 9
Format : VobSub
Muxing mode : zlib
Codec ID : S_VOBSUB
Duration : 1 h 53 min
Bit rate : 5 276 b/s
Count of elements : 1031
Stream size : 4.29 MiB (0%)
Language : Spanish
Default : No
Forced : No

Text #8
ID : 10
Format : VobSub
Muxing mode : zlib
Codec ID : S_VOBSUB
Duration : 1 h 53 min
Bit rate : 5 051 b/s
Count of elements : 1032
Stream size : 4.11 MiB (0%)
Language : Portuguese
Default : No
Forced : No

Text #9
ID : 11
Format : VobSub
Muxing mode : zlib
Codec ID : S_VOBSUB
Duration : 1 h 53 min
Bit rate : 5 052 b/s
Count of elements : 1019
Stream size : 4.11 MiB (0%)
Language : Czech
Default : No
Forced : No

Text #10
ID : 12
Format : VobSub
Muxing mode : zlib
Codec ID : S_VOBSUB
Duration : 1 h 53 min
Bit rate : 4 238 b/s
Count of elements : 971
Stream size : 3.45 MiB (0%)
Language : Polish
Default : No
Forced : No

Text #11
ID : 13
Format : VobSub
Muxing mode : zlib
Codec ID : S_VOBSUB
Duration : 1 h 53 min
Bit rate : 5 406 b/s
Count of elements : 871
Stream size : 4.40 MiB (0%)
Language : Romanian
Default : No
Forced : No

Text #12
ID : 14
Format : VobSub
Muxing mode : zlib
Codec ID : S_VOBSUB
Duration : 1 h 53 min
Bit rate : 5 192 b/s
Count of elements : 1006
Stream size : 4.22 MiB (0%)
Language : Russian
Default : No
Forced : No

[collapse]
Download Link(s)

Part01 Part02

Direct download files get automatically deleted after a month or so. Posted on : 09/10/2018

[collapse]
Magnet Link

Magnet

City of Angels 1998 (1080p Bluray x265 HEVC 10bit AAC 5.1 Tigole) | File size: 2.24 GB (2,413,060,096 bytes)

[collapse]

You may also like...

error: nah :p~