Clear and Present Danger (1994)

PG-13 | 2h 21min | Action, Crime, Drama | 3 August 1994 (USA)

CIA Analyst Jack Ryan is drawn into an illegal war fought by the US government against a Colombian drug cartel.

Watch trailer

Media information

General
Format : Matroska
Format version : Version 4
File size : 851 MiB
Duration : 2 h 21 min
Overall bit rate : 843 kb/s
Movie name : Clear.And.Present.Danger.1994.REMASTERED.720p.BluRay.2CH.x265.HEVC
Encoded date : UTC 2018-09-21 17:43:30
Writing application : mkvmerge v26.0.0 (‘In The Game’) 32-bit
Writing library : libebml v1.3.6 + libmatroska v1.4.9

Video
ID : 1
Format : HEVC
Format/Info : High Efficiency Video Coding
Format profile : [email protected]@Main
Codec ID : V_MPEGH/ISO/HEVC
Duration : 2 h 21 min
Bit rate : 777 kb/s
Width : 1 280 pixels
Height : 536 pixels
Display aspect ratio : 2.40:1
Frame rate mode : Constant
Frame rate : 23.976 (24000/1001) FPS
Color space : YUV
Chroma subsampling : 4:2:0
Bit depth : 8 bits
Bits/(Pixel*Frame) : 0.047
Stream size : 785 MiB (92%)
Default : Yes
Forced : No
Color range : Limited
Color primaries : BT.709
Transfer characteristics : BT.709
Matrix coefficients : BT.709

Audio
ID : 2
Format : AAC LC SBR
Commercial name : HE-AAC
Format settings : Explicit
Codec ID : A_AAC-2
Duration : 2 h 21 min
Bit rate : 64.0 kb/s
Channel(s) : 2 channels
Channel layout : L R
Sampling rate : 48.0 kHz
Frame rate : 23.438 FPS (2048 SPF)
Compression mode : Lossy
Delay relative to video : -4 ms
Stream size : 64.6 MiB (8%)
Default : Yes
Forced : No

Text
ID : 3
Format : UTF-8
Codec ID : S_TEXT/UTF8
Codec ID/Info : UTF-8 Plain Text
Duration : 2 h 15 min
Bit rate : 50 b/s
Count of elements : 1570
Stream size : 50.4 KiB (0%)
Language : English
Default : Yes
Forced : No

[collapse]
Download Link(s)

Download

Direct download files get automatically deleted after a month or so. Posted on : 09/21/2018

[collapse]
Magnet Link

Magnet

Source : Clear.And.Present.Danger.1994.REMASTERED.1080p.BluRay.x264.TrueHD.5.1-SWTYBLZ-21.74 GB

[collapse]

You may also like...

error: nah :p~