Colombiana (2011)

PG-13 | 1h 48min | Action, Drama, Thriller | 26 August 2011 (USA)

A young woman, after witnessing her parents’ murder as a child in Bogota, grows up to be a stone-cold assassin.

Watch trailer

Media information

General
Format : Matroska
Format version : Version 4
File size : 2.79 GiB
Duration : 1 h 51 min
Overall bit rate : 3 581 kb/s
Movie name : Colombiana.2011.UNRATED.1080p.10bit.BluRay.6CH.x265.HEVC
Encoded date : UTC 2018-12-19 23:13:16
Writing application : mkvmerge v29.0.0 (‘Like It Or Not’) 32-bit
Writing library : libebml v1.3.6 + libmatroska v1.4.9

Video
ID : 1
Format : HEVC
Format/Info : High Efficiency Video Coding
Format profile : Main [email protected]@Main
Codec ID : V_MPEGH/ISO/HEVC
Duration : 1 h 51 min
Bit rate : 2 941 kb/s
Width : 1 920 pixels
Height : 816 pixels
Display aspect ratio : 2.35:1
Frame rate mode : Constant
Frame rate : 23.976 (24000/1001) FPS
Color space : YUV
Chroma subsampling : 4:2:0
Bit depth : 10 bits
Bits/(Pixel*Frame) : 0.078
Stream size : 2.29 GiB (82%)
Default : Yes
Forced : No

Audio
ID : 2
Format : AAC LC
Codec ID : A_AAC-2
Duration : 1 h 51 min
Bit rate : 637 kb/s
Channel(s) : 6 channels
Channel layout : C L R Ls Rs LFE
Sampling rate : 48.0 kHz
Frame rate : 46.875 FPS (1024 SPF)
Compression mode : Lossy
Stream size : 509 MiB (18%)
Title : LC AAC 640 kbs, 6ch
Language : English
Default : Yes
Forced : No

Text
ID : 3
Format : UTF-8
Codec ID : S_TEXT/UTF8
Codec ID/Info : UTF-8 Plain Text
Duration : 1 h 43 min
Bit rate : 36 b/s
Count of elements : 944
Stream size : 27.6 KiB (0%)
Title : English
Language : English
Default : Yes
Forced : No

[collapse]
Download Link(s)

Part01 Part02 Part03

Direct download files get automatically deleted after a month or so. Posted on : 12/22/2018

[collapse]
Magnet Link

Magnet

Colombiana.2011.UNRATED.1080p.BluRay.x265.HEVC.10bit.5,1ch-2.8 GB

[collapse]

Media information

General
Format : Matroska
Format version : Version 4
File size : 636 MiB
Duration : 1 h 43 min
Overall bit rate : 860 kb/s
Movie name : Colombiana.2011.720p.BluRay.2CH.x265.HEVC
Encoded date : UTC 2018-12-17 18:27:25 / UTC 2018-12-17T00:05:26Z
Writing application : mkvmerge v29.0.0 (‘Like It Or Not’) 32-bit
Writing library : libebml v1.3.6 + libmatroska v1.4.9 / Lavf57.7.2

Video
ID : 1
Format : HEVC
Format/Info : High Efficiency Video Coding
Format profile : [email protected]@Main
Codec ID : V_MPEGH/ISO/HEVC
Duration : 1 h 43 min
Width : 1 280 pixels
Height : 544 pixels
Display aspect ratio : 2.35:1
Frame rate mode : Constant
Frame rate : 25.000 FPS
Color space : YUV
Chroma subsampling : 4:2:0
Bit depth : 8 bits
Default : Yes
Forced : No
Color range : Limited
Color primaries : BT.709
Transfer characteristics : BT.709
Matrix coefficients : BT.709
FromStats_BitRate : 793411
FromStats_FrameCount : 155182
FromStats_StreamSize : 615616232

Audio
ID : 2
Format : AAC LC
Codec ID : A_AAC-2
Duration : 1 h 43 min
Channel(s) : 2 channels
Channel layout : L R
Sampling rate : 48.0 kHz
Frame rate : 46.875 FPS (1024 SPF)
Compression mode : Lossy
Delay relative to video : -80 ms
Title : Stereo
Language : English
Default : Yes
Forced : No
FromStats_BitRate : 64199
FromStats_FrameCount : 290975
FromStats_StreamSize : 49814835

Text
ID : 3
Format : ASS
Codec ID : S_TEXT/ASS
Compression mode : Lossless
Language : English
Default : Yes
Forced : Yes
FromStats_BitRate : 64
FromStats_FrameCount : 772
FromStats_StreamSize : 44738

[collapse]
Download Link(s)

Download

Direct download files get automatically deleted after a month or so. Posted on : 12/17/2018

[collapse]
Magnet Link

Magnet

Colombiana.2011.INTERNAL.1080p.BluRay.x264-XOXO-7.64 GB

[collapse]

You may also like...

error: nah :p~