Color Out of Space (2019)

Unrated | 1h 51min | Horror, Sci-Fi | 5 February 2020 (Philippines)

A secluded farm is struck by a strange meteorite which has apocalyptic consequences for the family living there and possibly the world.

Watch trailer

Media information

General
Format : Matroska
Format version : Version 4
File size : 1.42 GiB
Duration : 1 h 50 min
Overall bit rate : 1 841 kb/s
Movie name : Color.Out.of.Space.2019.1080p.10bit.BluRay.6CH.x265.HEVC

Video
ID : 1
Format : HEVC
Format/Info : High Efficiency Video Coding
Format profile : Main [email protected]@Main
Codec ID : V_MPEGH/ISO/HEVC
Duration : 1 h 50 min
Bit rate : 1 500 kb/s
Width : 1 920 pixels
Height : 800 pixels
Display aspect ratio : 2.40:1
Frame rate mode : Constant
Frame rate : 23.976 (24000/1001) FPS
Color space : YUV
Chroma subsampling : 4:2:0
Bit depth : 10 bits
Bits/(Pixel*Frame) : 0.041
Stream size : 1.15 GiB (82%)
Default : Yes
Forced : No
Color range : Limited
Color primaries : BT.709
Transfer characteristics : BT.709
Matrix coefficients : BT.709

Audio
ID : 2
Format : AAC LC
Codec ID : A_AAC-2
Duration : 1 h 50 min
Bit rate : 326 kb/s
Channel(s) : 6 channels
Channel layout : C L R Ls Rs LFE
Sampling rate : 48.0 kHz
Frame rate : 46.875 FPS (1024 SPF)
Compression mode : Lossy
Delay relative to video : 9 ms
Stream size : 257 MiB (18%)
Language : English
Default : Yes
Forced : No

Text #1
ID : 3
Format : PGS
Muxing mode : zlib
Codec ID : S_HDMV/PGS
Duration : 1 h 45 min
Bit rate : 22.5 kb/s
Count of elements : 2902
Stream size : 17.0 MiB (1%)
Title : English-PGS
Language : English
Default : No
Forced : No

Text #2
ID : 4
Format : UTF-8
Codec ID : S_TEXT/UTF8
Codec ID/Info : UTF-8 Plain Text
Duration : 1 h 44 min
Bit rate : 46 b/s
Count of elements : 1253
Stream size : 35.5 KiB (0%)
Title : English-SRT
Language : English
Default : Yes
Forced : No

Text #3
ID : 5
Format : VobSub
Muxing mode : zlib
Codec ID : S_VOBSUB
Duration : 1 h 44 min
Bit rate : 4 415 b/s
Count of elements : 1220
Stream size : 3.31 MiB (0%)
Language : Spanish
Default : No
Forced : No

Text #4
ID : 6
Format : UTF-8
Codec ID : S_TEXT/UTF8
Codec ID/Info : UTF-8 Plain Text
Duration : 1 h 45 min
Bit rate : 59 b/s
Count of elements : 1159
Stream size : 45.9 KiB (0%)
Language : Arabic
Default : No
Forced : No

Text #5
ID : 7
Format : UTF-8
Codec ID : S_TEXT/UTF8
Codec ID/Info : UTF-8 Plain Text
Duration : 1 h 45 min
Bit rate : 36 b/s
Count of elements : 867
Stream size : 28.4 KiB (0%)
Language : Danish
Default : No
Forced : No

Text #6
ID : 8
Format : UTF-8
Codec ID : S_TEXT/UTF8
Codec ID/Info : UTF-8 Plain Text
Duration : 1 h 46 min
Bit rate : 52 b/s
Count of elements : 1249
Stream size : 41.3 KiB (0%)
Language : Persian
Default : No
Forced : No

Text #7
ID : 9
Format : UTF-8
Codec ID : S_TEXT/UTF8
Codec ID/Info : UTF-8 Plain Text
Duration : 1 h 46 min
Bit rate : 45 b/s
Count of elements : 1167
Stream size : 35.7 KiB (0%)
Language : Indonesian
Default : No
Forced : No

Text #8
ID : 10
Format : UTF-8
Codec ID : S_TEXT/UTF8
Codec ID/Info : UTF-8 Plain Text
Duration : 1 h 44 min
Bit rate : 38 b/s
Count of elements : 1149
Stream size : 29.5 KiB (0%)
Language : Spanish
Default : No
Forced : No

Text #9
ID : 11
Format : UTF-8
Codec ID : S_TEXT/UTF8
Codec ID/Info : UTF-8 Plain Text
Duration : 1 h 47 min
Bit rate : 48 b/s
Count of elements : 1249
Stream size : 38.2 KiB (0%)
Language : Vietnamese
Default : No
Forced : No

[collapse]
Download Link(s)

Download

Direct download files get automatically deleted after a month or so. Posted on : 02/23/2019

[collapse]
Magnet Link

Magnet

Color.Out.of.Space.2019.1080p.BluRay.x265.HEVC.10bit.AAC.5.1-1.4 GB

[collapse]

You may also like...

error: nah :p~