Comedy Central Roast of Bruce Willis (2018)

TV-MA | 1h 25min | Comedy | TV Special 29 July 2018

Traditional comedy ‘roast’ where celebrities, comics and friends poke fun at actor Bruce Willis.

Watch trailer

Media information

General
Format : Matroska
Format version : Version 4 / Version 2
File size : 501 MiB
Duration : 1 h 23 min
Overall bit rate : 836 kb/s
Movie name : The.Comedy.Central.Roast.of.Bruce.Willis.2018.720p.WEB-DL.2CH.x265.HEVC
Encoded date : UTC 2018-08-03 17:20:23
Writing application : mkvmerge v25.0.0 (‘Prog Noir’) 32-bit
Writing library : libebml v1.3.6 + libmatroska v1.4.9

Video
ID : 1
Format : HEVC
Format/Info : High Efficiency Video Coding
Format profile : [email protected]@Main
Codec ID : V_MPEGH/ISO/HEVC
Duration : 1 h 23 min
Bit rate : 770 kb/s
Width : 1 280 pixels
Height : 720 pixels
Display aspect ratio : 16:9
Frame rate mode : Constant
Frame rate : 29.970 (30000/1001) FPS
Color space : YUV
Chroma subsampling : 4:2:0
Bit depth : 8 bits
Bits/(Pixel*Frame) : 0.028
Stream size : 461 MiB (92%)
Default : Yes
Forced : No
Color range : Limited
Color primaries : BT.709
Transfer characteristics : BT.709
Matrix coefficients : BT.709

Audio
ID : 2
Format : AAC
Format/Info : Advanced Audio Codec
Format profile : HE-AAC / LC
Format settings : Explicit
Codec ID : A_AAC-2
Duration : 1 h 23 min
Bit rate : 64.0 kb/s
Channel(s) : 2 channels
Channel positions : Front: L R
Sampling rate : 48.0 kHz / 24.0 kHz
Frame rate : 23.438 FPS (1024 SPF)
Compression mode : Lossy
Delay relative to video : -4 ms
Stream size : 38.3 MiB (8%)
Default : Yes
Forced : No

Text
ID : 3
Format : UTF-8
Codec ID : S_TEXT/UTF8
Codec ID/Info : UTF-8 Plain Text
Duration : 1 h 23 min
Bit rate : 95 b/s
Count of elements : 1811
Stream size : 58.5 KiB (0%)
Default : Yes
Forced : No

[collapse]
Download Link(s)

Download

Direct download files get automatically deleted after a month or so. Posted on : 08/03/2018

[collapse]
Magnet Link

Magnet

Source : The.Comedy.Central.Roast.of.Bruce.Willis.2018.1080p.AMZN.WEBRip.DDP2.0.x264-NTG-5.81 GB

[collapse]

You may also like...

error: nah :p~