Comedy Central Roast of Justin Bieber (2015)

TV-MA | 1h 24min | Comedy | TV Special 30 March 2015

Several roasters, and the master himself Kevin Hart, make fun of Justin Bieber.

Watch trailer

Media information-720p.WEB-DL.2CH.x265.HEVC

General
Format : Matroska
Format version : Version 4
File size : 639 MiB
Duration : 1 h 24 min
Overall bit rate : 1 060 kb/s
Movie name : The.Comedy.Central.Roast.Of.Justin.Bieber.Uncensored.720p.WEB-DL.2CH.x265.HEVC
Encoded date : UTC 2019-12-22 14:54:51
Writing application : mkvmerge v41.0.0 (‘Smarra’) 32-bit
Writing library : libebml v1.3.9 + libmatroska v1.5.2

Video
ID : 1
Format : HEVC
Format/Info : High Efficiency Video Coding
Format profile : [email protected]@Main
Codec ID : V_MPEGH/ISO/HEVC
Duration : 1 h 24 min
Bit rate : 961 kb/s
Width : 1 280 pixels
Height : 720 pixels
Display aspect ratio : 16:9
Frame rate mode : Constant
Frame rate : 29.970 (30000/1001) FPS
Color space : YUV
Chroma subsampling : 4:2:0
Bit depth : 8 bits
Bits/(Pixel*Frame) : 0.035
Stream size : 580 MiB (91%)
Default : Yes
Forced : No
Color range : Limited
Color primaries : BT.709
Transfer characteristics : BT.709
Matrix coefficients : BT.709

Audio
ID : 2
Format : AC-3
Format/Info : Audio Coding 3
Commercial name : Dolby Digital
Codec ID : A_AC3
Duration : 1 h 24 min
Bit rate mode : Constant
Bit rate : 96.0 kb/s
Channel(s) : 2 channels
Channel layout : L R
Sampling rate : 48.0 kHz
Frame rate : 31.250 FPS (1536 SPF)
Compression mode : Lossy
Delay relative to video : -5 ms
Stream size : 57.9 MiB (9%)
Title : Stereo
Language : English
Service kind : Complete Main
Default : Yes
Forced : No

Text
ID : 3
Format : UTF-8
Codec ID : S_TEXT/UTF8
Codec ID/Info : UTF-8 Plain Text
Duration : 1 h 23 min
Bit rate : 118 b/s
Count of elements : 1623
Stream size : 72.3 KiB (0%)
Language : English
Default : Yes
Forced : No

[collapse]
Download Link(s)

Download

Direct download files get automatically deleted after a month or so. Posted on : 12/23/2019

[collapse]
Magnet Link

Magnet

The.Comedy.Central.Roast.of.Justin.Bieber.UNCENSORED.1080p.WEB-DL.AAC2.0.H.264-NTb-3.28 GB

[collapse]

Media information-Pre-Show.720p.WEB-DL.2CH.x265.HEVC

General
Format : Matroska
Format version : Version 4
File size : 280 MiB
Duration : 20 min 20 s
Overall bit rate : 1 923 kb/s
Movie name : The.Comedy.Central.Roast.Of.Justin.Bieber.Uncensored.Pre-Show.720p.WEB-DL.2CH.x265.HEVC
Encoded date : UTC 2019-12-22 14:56:38
Writing application : mkvmerge v41.0.0 (‘Smarra’) 32-bit
Writing library : libebml v1.3.9 + libmatroska v1.5.2

Video
ID : 1
Format : HEVC
Format/Info : High Efficiency Video Coding
Format profile : [email protected]@Main
Codec ID : V_MPEGH/ISO/HEVC
Duration : 20 min 20 s
Bit rate : 1 825 kb/s
Width : 1 280 pixels
Height : 720 pixels
Display aspect ratio : 16:9
Frame rate mode : Constant
Frame rate : 29.970 (30000/1001) FPS
Color space : YUV
Chroma subsampling : 4:2:0
Bit depth : 8 bits
Bits/(Pixel*Frame) : 0.066
Stream size : 265 MiB (95%)
Default : Yes
Forced : No
Color range : Limited
Color primaries : BT.709
Transfer characteristics : BT.709
Matrix coefficients : BT.709

Audio
ID : 2
Format : AC-3
Format/Info : Audio Coding 3
Commercial name : Dolby Digital
Codec ID : A_AC3
Duration : 20 min 20 s
Bit rate mode : Constant
Bit rate : 96.0 kb/s
Channel(s) : 2 channels
Channel layout : L R
Sampling rate : 48.0 kHz
Frame rate : 31.250 FPS (1536 SPF)
Compression mode : Lossy
Delay relative to video : -5 ms
Stream size : 14.0 MiB (5%)
Title : Stereo
Language : English
Service kind : Complete Main
Default : Yes
Forced : No

[collapse]
Download Link(s)

Download

Direct download files get automatically deleted after a month or so. Posted on : 12/23/2019

[collapse]
Magnet Link

Magnet

The.Comedy.Central.Roast.of.Justin.Bieber.UNCENSORED.1080p.WEB-DL.AAC2.0.H.264-NTb-3.28 GB

[collapse]

You may also like...

error: nah :p~