Crack: Cocaine, Corruption & Conspiracy (2021)

TV-MA | 1h 29min | Documentary, Crime, History | 11 January 2021 (USA)

In the early 1980s, the crack epidemic tore through America’s inner cities like a tsunami, ravaging all in its wake.

Watch trailer

Media information

General
Format : Matroska
Format version : Version 4
File size : 1.39 GiB
Duration : 1 h 29 min
Overall bit rate : 2 219 kb/s
Movie name : Crack.Cocaine.Corruption.and.Conspiracy.2021.1080p.10bit.WEBRip.6CH.x265.HEVC

Video
ID : 1
Format : HEVC
Format/Info : High Efficiency Video Coding
Format profile : Main [email protected]@Main
Codec ID : V_MPEGH/ISO/HEVC
Duration : 1 h 29 min
Bit rate : 1 989 kb/s
Width : 1 920 pixels
Height : 1 080 pixels
Display aspect ratio : 16:9
Frame rate mode : Constant
Frame rate : 23.976 (24000/1001) FPS
Color space : YUV
Chroma subsampling : 4:2:0
Bit depth : 10 bits
Bits/(Pixel*Frame) : 0.040
Stream size : 1.25 GiB (90%)
Default : Yes
Forced : No
Color range : Limited
Color primaries : BT.709
Transfer characteristics : BT.709
Matrix coefficients : BT.709

Audio
ID : 2
Format : AAC LC
Codec ID : A_AAC-2
Duration : 1 h 29 min
Bit rate : 221 kb/s
Channel(s) : 6 channels
Channel layout : C L R Ls Rs LFE
Sampling rate : 48.0 kHz
Frame rate : 46.875 FPS (1024 SPF)
Compression mode : Lossy
Delay relative to video : -21 ms
Stream size : 142 MiB (10%)
Language : English
Default : Yes
Forced : No

Text #1
ID : 3
Format : ASS
Codec ID : S_TEXT/ASS
Duration : 1 h 27 min
Bit rate : 152 b/s
Count of elements : 1508
Compression mode : Lossless
Stream size : 97.8 KiB (0%)
Title : English (SDH)
Language : English
Default : Yes
Forced : Yes

Text #2
ID : 4
Format : ASS
Codec ID : S_TEXT/ASS
Duration : 1 h 28 min
Bit rate : 214 b/s
Count of elements : 1491
Compression mode : Lossless
Stream size : 139 KiB (0%)
Title : Arabic
Language : Arabic
Default : No
Forced : No

Text #3
ID : 5
Format : ASS
Codec ID : S_TEXT/ASS
Duration : 1 h 28 min
Bit rate : 131 b/s
Count of elements : 1418
Compression mode : Lossless
Stream size : 85.4 KiB (0%)
Title : Czech
Language : Czech
Default : No
Forced : No

Text #4
ID : 6
Format : ASS
Codec ID : S_TEXT/ASS
Duration : 1 h 28 min
Bit rate : 132 b/s
Count of elements : 1339
Compression mode : Lossless
Stream size : 86.0 KiB (0%)
Title : Danish
Language : Danish
Default : No
Forced : No

Text #5
ID : 7
Format : ASS
Codec ID : S_TEXT/ASS
Duration : 1 h 28 min
Bit rate : 133 b/s
Count of elements : 1466
Compression mode : Lossless
Stream size : 86.6 KiB (0%)
Title : German
Language : German
Default : No
Forced : No

Text #6
ID : 8
Format : ASS
Codec ID : S_TEXT/ASS
Duration : 1 h 28 min
Bit rate : 211 b/s
Count of elements : 1462
Compression mode : Lossless
Stream size : 137 KiB (0%)
Title : Greek
Language : Greek
Default : No
Forced : No

Text #7
ID : 9
Format : ASS
Codec ID : S_TEXT/ASS
Duration : 1 h 27 min
Bit rate : 135 b/s
Count of elements : 1370
Compression mode : Lossless
Stream size : 86.8 KiB (0%)
Title : Spanish
Language : Spanish
Default : No
Forced : No

Text #8
ID : 10
Format : ASS
Codec ID : S_TEXT/ASS
Duration : 1 h 28 min
Bit rate : 132 b/s
Count of elements : 1410
Compression mode : Lossless
Stream size : 85.7 KiB (0%)
Title : European Spanish
Language : Spanish
Default : No
Forced : No

Text #9
ID : 11
Format : ASS
Codec ID : S_TEXT/ASS
Duration : 1 h 28 min
Bit rate : 131 b/s
Count of elements : 1486
Compression mode : Lossless
Stream size : 85.4 KiB (0%)
Title : Finnish
Language : Finnish
Default : No
Forced : No

Text #10
ID : 12
Format : ASS
Codec ID : S_TEXT/ASS
Duration : 1 h 28 min
Bit rate : 134 b/s
Count of elements : 1406
Compression mode : Lossless
Stream size : 86.9 KiB (0%)
Title : French
Language : French
Default : No
Forced : No

Text #11
ID : 13
Format : ASS
Codec ID : S_TEXT/ASS
Duration : 1 h 28 min
Bit rate : 188 b/s
Count of elements : 1466
Compression mode : Lossless
Stream size : 122 KiB (0%)
Title : Hebrew
Language : Hebrew
Default : No
Forced : No

Text #12
ID : 14
Format : ASS
Codec ID : S_TEXT/ASS
Duration : 1 h 28 min
Bit rate : 125 b/s
Count of elements : 1464
Compression mode : Lossless
Stream size : 81.6 KiB (0%)
Title : Croatian
Language : Croatian
Default : No
Forced : No

Text #13
ID : 15
Format : ASS
Codec ID : S_TEXT/ASS
Duration : 1 h 28 min
Bit rate : 136 b/s
Count of elements : 1433
Compression mode : Lossless
Stream size : 88.2 KiB (0%)
Title : Hungarian
Language : Hungarian
Default : No
Forced : No

Text #14
ID : 16
Format : ASS
Codec ID : S_TEXT/ASS
Duration : 1 h 28 min
Bit rate : 130 b/s
Count of elements : 1409
Compression mode : Lossless
Stream size : 84.5 KiB (0%)
Title : Indonesian
Language : Indonesian
Default : No
Forced : No

Text #15
ID : 17
Format : ASS
Codec ID : S_TEXT/ASS
Duration : 1 h 28 min
Bit rate : 131 b/s
Count of elements : 1387
Compression mode : Lossless
Stream size : 85.3 KiB (0%)
Title : Italian
Language : Italian
Default : No
Forced : No

Text #16
ID : 18
Format : ASS
Codec ID : S_TEXT/ASS
Duration : 1 h 28 min
Bit rate : 152 b/s
Count of elements : 1587
Compression mode : Lossless
Stream size : 98.6 KiB (0%)
Title : Japanese
Language : Japanese
Default : No
Forced : No

Text #17
ID : 19
Format : ASS
Codec ID : S_TEXT/ASS
Duration : 1 h 28 min
Bit rate : 161 b/s
Count of elements : 1541
Compression mode : Lossless
Stream size : 105 KiB (0%)
Title : Korean
Language : Korean
Default : No
Forced : No

Text #18
ID : 20
Format : ASS
Codec ID : S_TEXT/ASS
Duration : 1 h 28 min
Bit rate : 138 b/s
Count of elements : 1448
Compression mode : Lossless
Stream size : 90.1 KiB (0%)
Title : Malay
Default : No
Forced : No

Text #19
ID : 21
Format : ASS
Codec ID : S_TEXT/ASS
Duration : 1 h 28 min
Bit rate : 120 b/s
Count of elements : 1311
Compression mode : Lossless
Stream size : 77.8 KiB (0%)
Title : Norwegian
Language : Norwegian
Default : No
Forced : No

Text #20
ID : 22
Format : ASS
Codec ID : S_TEXT/ASS
Duration : 1 h 27 min
Bit rate : 130 b/s
Count of elements : 1266
Compression mode : Lossless
Stream size : 83.4 KiB (0%)
Title : Dutch
Language : Dutch
Default : No
Forced : No

Text #21
ID : 23
Format : ASS
Codec ID : S_TEXT/ASS
Duration : 1 h 28 min
Bit rate : 132 b/s
Count of elements : 1456
Compression mode : Lossless
Stream size : 85.6 KiB (0%)
Title : Polish
Language : Polish
Default : No
Forced : No

Text #22
ID : 24
Format : ASS
Codec ID : S_TEXT/ASS
Duration : 1 h 28 min
Bit rate : 143 b/s
Count of elements : 1481
Compression mode : Lossless
Stream size : 93.3 KiB (0%)
Title : Portuguese
Language : Portuguese
Default : No
Forced : No

Text #23
ID : 25
Format : ASS
Codec ID : S_TEXT/ASS
Duration : 1 h 27 min
Bit rate : 136 b/s
Count of elements : 1483
Compression mode : Lossless
Stream size : 87.6 KiB (0%)
Title : Brazilian Portuguese
Language : Portuguese
Default : No
Forced : No

Text #24
ID : 26
Format : ASS
Codec ID : S_TEXT/ASS
Duration : 1 h 28 min
Bit rate : 149 b/s
Count of elements : 1477
Compression mode : Lossless
Stream size : 97.1 KiB (0%)
Title : Romanian
Language : Romanian
Default : No
Forced : No

Text #25
ID : 27
Format : ASS
Codec ID : S_TEXT/ASS
Duration : 1 h 28 min
Bit rate : 194 b/s
Count of elements : 1395
Compression mode : Lossless
Stream size : 126 KiB (0%)
Title : Russian
Language : Russian
Default : No
Forced : No

Text #26
ID : 28
Format : ASS
Codec ID : S_TEXT/ASS
Duration : 1 h 28 min
Bit rate : 134 b/s
Count of elements : 1355
Compression mode : Lossless
Stream size : 86.8 KiB (0%)
Title : Swedish
Language : Swedish
Default : No
Forced : No

Text #27
ID : 29
Format : ASS
Codec ID : S_TEXT/ASS
Duration : 1 h 28 min
Bit rate : 286 b/s
Count of elements : 1474
Compression mode : Lossless
Stream size : 186 KiB (0%)
Title : Thai
Language : Thai
Default : No
Forced : No

Text #28
ID : 30
Format : ASS
Codec ID : S_TEXT/ASS
Duration : 1 h 28 min
Bit rate : 138 b/s
Count of elements : 1427
Compression mode : Lossless
Stream size : 89.9 KiB (0%)
Title : Turkish
Language : Turkish
Default : No
Forced : No

Text #29
ID : 31
Format : ASS
Codec ID : S_TEXT/ASS
Duration : 1 h 28 min
Bit rate : 184 b/s
Count of elements : 1479
Compression mode : Lossless
Stream size : 119 KiB (0%)
Title : Vietnamese
Language : Vietnamese
Default : No
Forced : No

Text #30
ID : 32
Format : ASS
Codec ID : S_TEXT/ASS
Duration : 1 h 28 min
Bit rate : 131 b/s
Count of elements : 1464
Compression mode : Lossless
Stream size : 85.1 KiB (0%)
Title : Simplified Chinese
Language : Chinese
Default : No
Forced : No

Text #31
ID : 33
Format : ASS
Codec ID : S_TEXT/ASS
Duration : 1 h 28 min
Bit rate : 125 b/s
Count of elements : 1464
Compression mode : Lossless
Stream size : 81.2 KiB (0%)
Title : Traditional Chinese
Language : Chinese
Default : No
Forced : No

[collapse]
Download Link(s)

Download

Direct download files get automatically deleted after a month or so. Posted on : 01/13/2021

[collapse]
Magnet Link

Magnet

Crack.Cocaine.Corruption.and.Conspiracy.2021.1080p.WEB.H264-STRONTiUM-4.40 GB

[collapse]

Media information

General
Format : Matroska
Format version : Version 4
File size : 704 MiB
Duration : 1 h 29 min
Overall bit rate : 1 097 kb/s
Movie name : Crack.Cocaine.Corruption.and.Conspiracy.2021.720p.10bit.WEBRip.6CH.x265.HEVC

Video
ID : 1
Format : HEVC
Format/Info : High Efficiency Video Coding
Format profile : Main [email protected]@Main
Codec ID : V_MPEGH/ISO/HEVC
Duration : 1 h 29 min
Bit rate : 898 kb/s
Width : 1 280 pixels
Height : 720 pixels
Display aspect ratio : 16:9
Frame rate mode : Constant
Frame rate : 23.976 (24000/1001) FPS
Color space : YUV
Chroma subsampling : 4:2:0
Bit depth : 10 bits
Bits/(Pixel*Frame) : 0.041
Stream size : 576 MiB (82%)
Default : Yes
Forced : No
Color range : Limited
Color primaries : BT.709
Transfer characteristics : BT.709
Matrix coefficients : BT.709

Audio
ID : 2
Format : AAC LC
Codec ID : A_AAC-2
Duration : 1 h 29 min
Bit rate : 192 kb/s
Channel(s) : 6 channels
Channel layout : C L R Ls Rs LFE
Sampling rate : 48.0 kHz
Frame rate : 46.875 FPS (1024 SPF)
Compression mode : Lossy
Delay relative to video : -21 ms
Stream size : 122 MiB (17%)
Language : English
Default : Yes
Forced : No

Text #1
ID : 3
Format : ASS
Codec ID : S_TEXT/ASS
Duration : 1 h 27 min
Bit rate : 152 b/s
Count of elements : 1508
Compression mode : Lossless
Stream size : 97.8 KiB (0%)
Title : English (SDH)
Language : English
Default : Yes
Forced : Yes

Text #2
ID : 4
Format : ASS
Codec ID : S_TEXT/ASS
Duration : 1 h 28 min
Bit rate : 214 b/s
Count of elements : 1491
Compression mode : Lossless
Stream size : 139 KiB (0%)
Title : Arabic
Language : Arabic
Default : No
Forced : No

Text #3
ID : 5
Format : ASS
Codec ID : S_TEXT/ASS
Duration : 1 h 28 min
Bit rate : 131 b/s
Count of elements : 1418
Compression mode : Lossless
Stream size : 85.4 KiB (0%)
Title : Czech
Language : Czech
Default : No
Forced : No

Text #4
ID : 6
Format : ASS
Codec ID : S_TEXT/ASS
Duration : 1 h 28 min
Bit rate : 132 b/s
Count of elements : 1339
Compression mode : Lossless
Stream size : 86.0 KiB (0%)
Title : Danish
Language : Danish
Default : No
Forced : No

Text #5
ID : 7
Format : ASS
Codec ID : S_TEXT/ASS
Duration : 1 h 28 min
Bit rate : 133 b/s
Count of elements : 1466
Compression mode : Lossless
Stream size : 86.6 KiB (0%)
Title : German
Language : German
Default : No
Forced : No

Text #6
ID : 8
Format : ASS
Codec ID : S_TEXT/ASS
Duration : 1 h 28 min
Bit rate : 211 b/s
Count of elements : 1462
Compression mode : Lossless
Stream size : 137 KiB (0%)
Title : Greek
Language : Greek
Default : No
Forced : No

Text #7
ID : 9
Format : ASS
Codec ID : S_TEXT/ASS
Duration : 1 h 27 min
Bit rate : 135 b/s
Count of elements : 1370
Compression mode : Lossless
Stream size : 86.8 KiB (0%)
Title : Spanish
Language : Spanish
Default : No
Forced : No

Text #8
ID : 10
Format : ASS
Codec ID : S_TEXT/ASS
Duration : 1 h 28 min
Bit rate : 132 b/s
Count of elements : 1410
Compression mode : Lossless
Stream size : 85.7 KiB (0%)
Title : European Spanish
Language : Spanish
Default : No
Forced : No

Text #9
ID : 11
Format : ASS
Codec ID : S_TEXT/ASS
Duration : 1 h 28 min
Bit rate : 131 b/s
Count of elements : 1486
Compression mode : Lossless
Stream size : 85.4 KiB (0%)
Title : Finnish
Language : Finnish
Default : No
Forced : No

Text #10
ID : 12
Format : ASS
Codec ID : S_TEXT/ASS
Duration : 1 h 28 min
Bit rate : 134 b/s
Count of elements : 1406
Compression mode : Lossless
Stream size : 86.9 KiB (0%)
Title : French
Language : French
Default : No
Forced : No

Text #11
ID : 13
Format : ASS
Codec ID : S_TEXT/ASS
Duration : 1 h 28 min
Bit rate : 188 b/s
Count of elements : 1466
Compression mode : Lossless
Stream size : 122 KiB (0%)
Title : Hebrew
Language : Hebrew
Default : No
Forced : No

Text #12
ID : 14
Format : ASS
Codec ID : S_TEXT/ASS
Duration : 1 h 28 min
Bit rate : 125 b/s
Count of elements : 1464
Compression mode : Lossless
Stream size : 81.6 KiB (0%)
Title : Croatian
Language : Croatian
Default : No
Forced : No

Text #13
ID : 15
Format : ASS
Codec ID : S_TEXT/ASS
Duration : 1 h 28 min
Bit rate : 136 b/s
Count of elements : 1433
Compression mode : Lossless
Stream size : 88.2 KiB (0%)
Title : Hungarian
Language : Hungarian
Default : No
Forced : No

Text #14
ID : 16
Format : ASS
Codec ID : S_TEXT/ASS
Duration : 1 h 28 min
Bit rate : 130 b/s
Count of elements : 1409
Compression mode : Lossless
Stream size : 84.5 KiB (0%)
Title : Indonesian
Language : Indonesian
Default : No
Forced : No

Text #15
ID : 17
Format : ASS
Codec ID : S_TEXT/ASS
Duration : 1 h 28 min
Bit rate : 131 b/s
Count of elements : 1387
Compression mode : Lossless
Stream size : 85.3 KiB (0%)
Title : Italian
Language : Italian
Default : No
Forced : No

Text #16
ID : 18
Format : ASS
Codec ID : S_TEXT/ASS
Duration : 1 h 28 min
Bit rate : 152 b/s
Count of elements : 1587
Compression mode : Lossless
Stream size : 98.6 KiB (0%)
Title : Japanese
Language : Japanese
Default : No
Forced : No

Text #17
ID : 19
Format : ASS
Codec ID : S_TEXT/ASS
Duration : 1 h 28 min
Bit rate : 161 b/s
Count of elements : 1541
Compression mode : Lossless
Stream size : 105 KiB (0%)
Title : Korean
Language : Korean
Default : No
Forced : No

Text #18
ID : 20
Format : ASS
Codec ID : S_TEXT/ASS
Duration : 1 h 28 min
Bit rate : 138 b/s
Count of elements : 1448
Compression mode : Lossless
Stream size : 90.1 KiB (0%)
Title : Malay
Default : No
Forced : No

Text #19
ID : 21
Format : ASS
Codec ID : S_TEXT/ASS
Duration : 1 h 28 min
Bit rate : 120 b/s
Count of elements : 1311
Compression mode : Lossless
Stream size : 77.8 KiB (0%)
Title : Norwegian
Language : Norwegian
Default : No
Forced : No

Text #20
ID : 22
Format : ASS
Codec ID : S_TEXT/ASS
Duration : 1 h 27 min
Bit rate : 130 b/s
Count of elements : 1266
Compression mode : Lossless
Stream size : 83.4 KiB (0%)
Title : Dutch
Language : Dutch
Default : No
Forced : No

Text #21
ID : 23
Format : ASS
Codec ID : S_TEXT/ASS
Duration : 1 h 28 min
Bit rate : 132 b/s
Count of elements : 1456
Compression mode : Lossless
Stream size : 85.6 KiB (0%)
Title : Polish
Language : Polish
Default : No
Forced : No

Text #22
ID : 24
Format : ASS
Codec ID : S_TEXT/ASS
Duration : 1 h 28 min
Bit rate : 143 b/s
Count of elements : 1481
Compression mode : Lossless
Stream size : 93.3 KiB (0%)
Title : Portuguese
Language : Portuguese
Default : No
Forced : No

Text #23
ID : 25
Format : ASS
Codec ID : S_TEXT/ASS
Duration : 1 h 27 min
Bit rate : 136 b/s
Count of elements : 1483
Compression mode : Lossless
Stream size : 87.6 KiB (0%)
Title : Brazilian Portuguese
Language : Portuguese
Default : No
Forced : No

Text #24
ID : 26
Format : ASS
Codec ID : S_TEXT/ASS
Duration : 1 h 28 min
Bit rate : 149 b/s
Count of elements : 1477
Compression mode : Lossless
Stream size : 97.1 KiB (0%)
Title : Romanian
Language : Romanian
Default : No
Forced : No

Text #25
ID : 27
Format : ASS
Codec ID : S_TEXT/ASS
Duration : 1 h 28 min
Bit rate : 194 b/s
Count of elements : 1395
Compression mode : Lossless
Stream size : 126 KiB (0%)
Title : Russian
Language : Russian
Default : No
Forced : No

Text #26
ID : 28
Format : ASS
Codec ID : S_TEXT/ASS
Duration : 1 h 28 min
Bit rate : 134 b/s
Count of elements : 1355
Compression mode : Lossless
Stream size : 86.8 KiB (0%)
Title : Swedish
Language : Swedish
Default : No
Forced : No

Text #27
ID : 29
Format : ASS
Codec ID : S_TEXT/ASS
Duration : 1 h 28 min
Bit rate : 286 b/s
Count of elements : 1474
Compression mode : Lossless
Stream size : 186 KiB (0%)
Title : Thai
Language : Thai
Default : No
Forced : No

Text #28
ID : 30
Format : ASS
Codec ID : S_TEXT/ASS
Duration : 1 h 28 min
Bit rate : 138 b/s
Count of elements : 1427
Compression mode : Lossless
Stream size : 89.9 KiB (0%)
Title : Turkish
Language : Turkish
Default : No
Forced : No

Text #29
ID : 31
Format : ASS
Codec ID : S_TEXT/ASS
Duration : 1 h 28 min
Bit rate : 184 b/s
Count of elements : 1479
Compression mode : Lossless
Stream size : 119 KiB (0%)
Title : Vietnamese
Language : Vietnamese
Default : No
Forced : No

Text #30
ID : 32
Format : ASS
Codec ID : S_TEXT/ASS
Duration : 1 h 28 min
Bit rate : 131 b/s
Count of elements : 1464
Compression mode : Lossless
Stream size : 85.1 KiB (0%)
Title : Simplified Chinese
Language : Chinese
Default : No
Forced : No

Text #31
ID : 33
Format : ASS
Codec ID : S_TEXT/ASS
Duration : 1 h 28 min
Bit rate : 125 b/s
Count of elements : 1464
Compression mode : Lossless
Stream size : 81.2 KiB (0%)
Title : Traditional Chinese
Language : Chinese
Default : No
Forced : No

[collapse]
Download Link(s)

Download

Direct download files get automatically deleted after a month or so. Posted on : 01/13/2021

[collapse]
Magnet Link

Magnet

Crack.Cocaine.Corruption.and.Conspiracy.2021.1080p.WEB.H264-STRONTiUM-4.40 GB

[collapse]

You may also like...

error: nah :p~