Cult of Chucky (2017)

R | 1h 31min | Horror, Thriller | 24 October 2017 (France)

Chucky returns to terrorize his human victim, Nica. Meanwhile, the killer doll has some scores to settle with his old enemies, with the help of his former wife.

Details

General
Format : Matroska
Format version : Version 4 / Version 2
File size : 562 MiB
Duration : 1 h 30 min
Overall bit rate : 864 kb/s
Movie name : Cult.of.Chucky.2017.UNRATED.720p..2CH.x265.HEVC
Encoded date : UTC 2017-09-26 16:06:01
Writing application : mkvmerge v15.0.0 (‘Duel with the Devil’) 32-bit
Writing library : libebml v1.3.5 + libmatroska v1.4.5

Video
ID : 1
Format : HEVC
Format/Info : High Efficiency Video Coding
Format profile : [email protected]@Main
Codec ID : V_MPEGH/ISO/HEVC
Duration : 1 h 30 min
Bit rate : 787 kb/s
Width : 1 280 pixels
Height : 720 pixels
Display aspect ratio : 16:9
Frame rate mode : Constant
Frame rate : 23.976 (24000/1001) FPS
Color space : YUV
Chroma subsampling : 4:2:0
Bit depth : 8 bits
Bits/(Pixel*Frame) : 0.036
Stream size : 512 MiB (91%)
Default : Yes
Forced : No

Audio
ID : 2
Format : AAC
Format/Info : Advanced Audio Codec
Format profile : HE-AAC / LC
Format settings : Explicit
Codec ID : A_AAC-2
Duration : 1 h 30 min
Bit rate : 75.0 kb/s
Channel(s) : 2 channels
Channel positions : Front: L R
Sampling rate : 48.0 kHz / 24.0 kHz
Frame rate : 23.438 FPS (1024 SPF)
Compression mode : Lossy
Delay relative to video : 23 ms
Stream size : 48.8 MiB (9%)
Default : Yes
Forced : No

Text #1
ID : 3
Format : UTF-8
Codec ID : S_TEXT/UTF8
Codec ID/Info : UTF-8 Plain Text
Duration : 1 h 30 min
Bit rate : 35 b/s
Count of elements : 882
Stream size : 23.4 KiB (0%)
Title : ENG
Language : English
Default : Yes
Forced : No

Text #2
ID : 4
Format : UTF-8
Codec ID : S_TEXT/UTF8
Codec ID/Info : UTF-8 Plain Text
Duration : 1 h 30 min
Bit rate : 39 b/s
Count of elements : 1033
Stream size : 26.2 KiB (0%)
Title : ENG SDH
Language : English
Default : No
Forced : No

Menu
00:00:00.000 : :00:00:00.000
00:02:36.600 : :00:02:36.573
00:07:26.800 : :00:07:26.571
00:11:59.400 : :00:11:59.260
00:15:37.000 : :00:15:36.853
00:19:20.600 : :00:19:20.451
00:25:09.200 : :00:25:09.007
00:29:38.000 : :00:29:37.818
00:33:01.800 : :00:33:01.730
00:38:31.000 : :00:38:30.892
00:46:01.200 : :00:46:01.133
00:51:17.000 : :00:51:16.949
00:56:06.200 : :00:56:06.029
01:01:22.600 : :01:01:22.470
01:08:11.000 : :01:08:10.878
01:12:07.800 : :01:12:07.782
01:17:08.800 : :01:17:08.666
01:21:58.200 : :01:21:58.163
01:24:33.600 : :01:24:33.485
01:27:00.000 : :01:26:59.714

[collapse]
Download

[collapse]
Magnet Link

Magnet

Cult.of.Chucky.2017.UNRATED.1080p.BluRay.H264.AAC – 1.75 GB

[collapse]

You may also like...

error: nah :p~