Darbar (2020)

Not Rated | 2h 39min | Action | 8 January 2020 (USA)

A police officer on a chase to hunt down a dreaded gangster for fulfilling his own secret agenda.

Watch trailer

Media information

General
Format : Matroska
Format version : Version 4
File size : 1.51 GiB
Duration : 2 h 37 min
Overall bit rate mode : Variable
Overall bit rate : 1 377 kb/s
Movie name : Darbar.2020.720p.WEB-DL.2CH.x264.AVC

Video
ID : 1
Format : AVC
Format/Info : Advanced Video Codec
Format profile : [email protected]
Format settings : CABAC / 4 Ref Frames
Format settings, CABAC : Yes
Format settings, Reference frames : 4 frames
Codec ID : V_MPEG4/ISO/AVC
Duration : 2 h 37 min
Bit rate : 1 136 kb/s
Width : 1 280 pixels
Height : 520 pixels
Display aspect ratio : 2.462
Frame rate mode : Constant
Frame rate : 24.000 FPS
Color space : YUV
Chroma subsampling : 4:2:0
Bit depth : 8 bits
Scan type : Progressive
Bits/(Pixel*Frame) : 0.071
Stream size : 1.23 GiB (81%)
Language : Hindi
Default : Yes
Forced : No

Audio #1
ID : 2
Format : MPEG Audio
Format version : Version 1
Format profile : Layer 3
Format settings : Joint stereo / MS Stereo
Codec ID : A_MPEG/L3
Codec ID/Hint : MP3
Duration : 2 h 37 min
Bit rate mode : Variable
Bit rate : 96.0 kb/s
Channel(s) : 2 channels
Sampling rate : 48.0 kHz
Frame rate : 41.667 FPS (1152 SPF)
Compression mode : Lossy
Stream size : 103 MiB (7%)
Writing library : LAME3.99r
Language : Hindi
Default : Yes
Forced : Yes

Audio #2
ID : 3
Format : AAC LC
Codec ID : A_AAC-2
Duration : 2 h 37 min
Bit rate : 64.0 kb/s
Channel(s) : 2 channels
Channel layout : L R
Sampling rate : 48.0 kHz
Frame rate : 46.875 FPS (1024 SPF)
Compression mode : Lossy
Stream size : 71.9 MiB (5%)
Language : Tamil
Default : No
Forced : No

Audio #3
ID : 4
Format : MPEG Audio
Format version : Version 1
Format profile : Layer 3
Codec ID : A_MPEG/L3
Codec ID/Hint : MP3
Duration : 2 h 37 min
Bit rate mode : Variable
Bit rate : 96.0 kb/s
Channel(s) : 2 channels
Sampling rate : 48.0 kHz
Frame rate : 41.667 FPS (1152 SPF)
Compression mode : Lossy
Stream size : 109 MiB (7%)
Writing library : LAME3.99r
Language : Telugu
Default : No
Forced : No

[collapse]
Download Link(s)

Download

Direct download files get automatically deleted after a month or so. Posted on : 02/21/2020

[collapse]
Magnet Link

Magnet

Darbar.2020.720p.WEB-DL.Multi-Language-1.5GB

[collapse]

You may also like...

error: nah :p~