Dawn of the Planet of the Apes (2014)

PG-13 | 2h 10min | Action, Adventure, Drama | 11 July 2014 (USA)

A growing nation of genetically evolved apes led by Caesar is threatened by a band of human survivors of the devastating virus unleashed a decade earlier.

Watch trailer

Media information

General
Format : Matroska
Format version : Version 4
File size : 3.74 GiB
Duration : 2 h 10 min
Overall bit rate : 4 102 kb/s
Movie name : Dawn.of.the.Planet.of.the.Apes.2014.2160p.10bit.BluRay.8CH.x265.HEVC

Video
ID : 1
Format : HEVC
Format/Info : High Efficiency Video Coding
Format profile : Main [email protected]@Main
Codec ID : V_MPEGH/ISO/HEVC
Duration : 2 h 10 min
Bit rate : 3 500 kb/s
Width : 3 840 pixels
Height : 2 160 pixels
Display aspect ratio : 1.85:1
Frame rate mode : Constant
Frame rate : 23.976 (24000/1001) FPS
Color space : YUV
Chroma subsampling : 4:2:0
Bit depth : 10 bits
Bits/(Pixel*Frame) : 0.018
Stream size : 3.19 GiB (85%)
Default : Yes
Forced : No
Color range : Limited
Color primaries : BT.2020
Transfer characteristics : PQ
Matrix coefficients : BT.2020 non-constant

Audio
ID : 2
Format : AAC LC
Codec ID : A_AAC-2
Duration : 2 h 10 min
Bit rate : 320 kb/s
Channel(s) : 8 channels
Channel layout : C L R Ls Rs Lw Rw LFE
Sampling rate : 48.0 kHz
Frame rate : 46.875 FPS (1024 SPF)
Compression mode : Lossy
Delay relative to video : -21 ms
Stream size : 298 MiB (8%)
Language : English
Default : Yes
Forced : No

Text #1
ID : 3
Format : PGS
Muxing mode : zlib
Codec ID : S_HDMV/PGS
Duration : 1 h 58 min
Bit rate : 22.9 kb/s
Count of elements : 2562
Stream size : 19.5 MiB (1%)
Title : English-PGS
Language : English
Default : Yes
Forced : Yes

Text #2
ID : 4
Format : PGS
Muxing mode : zlib
Codec ID : S_HDMV/PGS
Duration : 2 h 9 min
Bit rate : 14.4 kb/s
Count of elements : 1716
Stream size : 13.3 MiB (0%)
Title : Spanish-PGS
Language : Spanish
Default : No
Forced : No

Text #3
ID : 5
Format : PGS
Muxing mode : zlib
Codec ID : S_HDMV/PGS
Duration : 2 h 9 min
Bit rate : 11.7 kb/s
Count of elements : 1574
Stream size : 10.8 MiB (0%)
Title : French-PGS
Language : French
Default : No
Forced : No

Text #4
ID : 6
Format : PGS
Muxing mode : zlib
Codec ID : S_HDMV/PGS
Duration : 2 h 9 min
Bit rate : 13.7 kb/s
Count of elements : 1728
Stream size : 12.7 MiB (0%)
Title : Spanish-PGS
Language : Spanish
Default : No
Forced : No

Text #5
ID : 7
Format : PGS
Muxing mode : zlib
Codec ID : S_HDMV/PGS
Duration : 2 h 9 min
Bit rate : 13.2 kb/s
Count of elements : 1626
Stream size : 12.2 MiB (0%)
Title : Danish-PGS
Language : Danish
Default : No
Forced : No

Text #6
ID : 8
Format : PGS
Muxing mode : zlib
Codec ID : S_HDMV/PGS
Duration : 2 h 9 min
Bit rate : 12.1 kb/s
Count of elements : 1532
Stream size : 11.2 MiB (0%)
Title : Dutch-PGS
Language : Dutch
Default : No
Forced : No

Text #7
ID : 9
Format : PGS
Muxing mode : zlib
Codec ID : S_HDMV/PGS
Duration : 2 h 9 min
Bit rate : 12.3 kb/s
Count of elements : 1688
Stream size : 11.4 MiB (0%)
Title : Finnish-PGS
Language : Finnish
Default : No
Forced : No

Text #8
ID : 10
Format : PGS
Muxing mode : zlib
Codec ID : S_HDMV/PGS
Duration : 2 h 9 min
Bit rate : 14.8 kb/s
Count of elements : 1704
Stream size : 13.7 MiB (0%)
Title : German-PGS
Language : German
Default : No
Forced : No

Text #9
ID : 11
Format : PGS
Muxing mode : zlib
Codec ID : S_HDMV/PGS
Duration : 2 h 9 min
Bit rate : 13.4 kb/s
Count of elements : 1754
Stream size : 12.4 MiB (0%)
Title : Italian-PGS
Language : Italian
Default : No
Forced : No

Text #10
ID : 12
Format : PGS
Muxing mode : zlib
Codec ID : S_HDMV/PGS
Duration : 2 h 9 min
Bit rate : 9 641 b/s
Count of elements : 1526
Stream size : 8.91 MiB (0%)
Title : Japanese-PGS
Language : Japanese
Default : No
Forced : No

Text #11
ID : 13
Format : PGS
Muxing mode : zlib
Codec ID : S_HDMV/PGS
Duration : 1 h 40 min
Bit rate : 2 086 b/s
Count of elements : 250
Stream size : 1.49 MiB (0%)
Title : Japanese-PGS
Language : Japanese
Default : No
Forced : No

Text #12
ID : 14
Format : PGS
Muxing mode : zlib
Codec ID : S_HDMV/PGS
Duration : 2 h 9 min
Bit rate : 13.3 kb/s
Count of elements : 1746
Stream size : 12.3 MiB (0%)
Title : Norwegian-PGS
Language : Norwegian
Default : No
Forced : No

Text #13
ID : 15
Format : PGS
Muxing mode : zlib
Codec ID : S_HDMV/PGS
Duration : 2 h 9 min
Bit rate : 13.5 kb/s
Count of elements : 1750
Stream size : 12.5 MiB (0%)
Title : Swedish-PGS
Language : Swedish
Default : No
Forced : No

Text #14
ID : 16
Format : PGS
Muxing mode : zlib
Codec ID : S_HDMV/PGS
Duration : 2 h 9 min
Bit rate : 11.0 kb/s
Count of elements : 1764
Stream size : 10.2 MiB (0%)
Title : Chinese-PGS
Language : Chinese
Default : No
Forced : No

Text #15
ID : 17
Format : PGS
Muxing mode : zlib
Codec ID : S_HDMV/PGS
Duration : 2 h 9 min
Bit rate : 11.0 kb/s
Count of elements : 1825
Stream size : 10.2 MiB (0%)
Title : Chinese-PGS
Language : Chinese
Default : No
Forced : No

Text #16
ID : 18
Format : PGS
Muxing mode : zlib
Codec ID : S_HDMV/PGS
Duration : 2 h 1 min
Bit rate : 77.9 kb/s
Count of elements : 4148
Stream size : 67.8 MiB (2%)
Title : English-COMMENTARY-PGS
Language : English
Default : No
Forced : No

Text #17
ID : 19
Format : PGS
Muxing mode : zlib
Codec ID : S_HDMV/PGS
Duration : 2 h 9 min
Bit rate : 63.2 kb/s
Count of elements : 4042
Stream size : 58.7 MiB (2%)
Title : French-COMMENTARY-PGS
Language : French
Default : No
Forced : No

Text #18
ID : 20
Format : PGS
Muxing mode : zlib
Codec ID : S_HDMV/PGS
Duration : 2 h 9 min
Bit rate : 62.9 kb/s
Count of elements : 4056
Stream size : 58.4 MiB (2%)
Title : Spanish-COMMENTARY-PGS
Language : Spanish
Default : No
Forced : No

Text #19
ID : 21
Format : PGS
Muxing mode : zlib
Codec ID : S_HDMV/PGS
Duration : 2 h 9 min
Bit rate : 58.3 kb/s
Count of elements : 4054
Stream size : 54.1 MiB (1%)
Title : Danish-COMMENTARY-PGS
Language : Danish
Default : No
Forced : No

Text #20
ID : 22
Format : PGS
Muxing mode : zlib
Codec ID : S_HDMV/PGS
Duration : 2 h 9 min
Bit rate : 61.7 kb/s
Count of elements : 4024
Stream size : 57.3 MiB (1%)
Title : Dutch-COMMENTARY-PGS
Language : Dutch
Default : No
Forced : No

Text #21
ID : 23
Format : PGS
Muxing mode : zlib
Codec ID : S_HDMV/PGS
Duration : 2 h 9 min
Bit rate : 61.6 kb/s
Count of elements : 4054
Stream size : 57.2 MiB (1%)
Title : Finnish-COMMENTARY-PGS
Language : Finnish
Default : No
Forced : No

Text #22
ID : 24
Format : PGS
Muxing mode : zlib
Codec ID : S_HDMV/PGS
Duration : 2 h 9 min
Bit rate : 67.0 kb/s
Count of elements : 4052
Stream size : 62.2 MiB (2%)
Title : German-COMMENTARY-PGS
Language : German
Default : No
Forced : No

Text #23
ID : 25
Format : PGS
Muxing mode : zlib
Codec ID : S_HDMV/PGS
Duration : 2 h 9 min
Bit rate : 59.6 kb/s
Count of elements : 4056
Stream size : 55.3 MiB (1%)
Title : Italian-COMMENTARY-PGS
Language : Italian
Default : No
Forced : No

Text #24
ID : 26
Format : PGS
Muxing mode : zlib
Codec ID : S_HDMV/PGS
Duration : 2 h 9 min
Bit rate : 38.6 kb/s
Count of elements : 2960
Stream size : 35.9 MiB (1%)
Title : Japanese-COMMENTARY-PGS
Language : Japanese
Default : No
Forced : No

Text #25
ID : 27
Format : PGS
Muxing mode : zlib
Codec ID : S_HDMV/PGS
Duration : 2 h 9 min
Bit rate : 61.8 kb/s
Count of elements : 4054
Stream size : 57.3 MiB (1%)
Title : Norwegian-COMMENTARY-PGS
Language : Norwegian
Default : No
Forced : No

Text #26
ID : 28
Format : PGS
Muxing mode : zlib
Codec ID : S_HDMV/PGS
Duration : 2 h 9 min
Bit rate : 62.2 kb/s
Count of elements : 4056
Stream size : 57.8 MiB (2%)
Title : Swedish-COMMENTARY-PGS
Language : Swedish
Default : No
Forced : No

Text #27
ID : 29
Format : PGS
Muxing mode : zlib
Codec ID : S_HDMV/PGS
Duration : 1 h 40 min
Bit rate : 1 873 b/s
Count of elements : 252
Stream size : 1.34 MiB (0%)
Title : English-FORCED-PGS
Language : English
Default : No
Forced : No

[collapse]
Download Link(s)

Part01 Part02 Part03

Direct download files get automatically deleted after a month or so. Posted on : 06/21/2020

[collapse]
Magnet Link

Magnet

Dawn.of.the.Planet.of.the.Apes.2014.2160p.BluRay.REMUX.HEVC.DTS-HD.MA.7.1-FGT-41.28 GB

[collapse]

Media information

General
Format : Matroska
Format version : Version 4
File size : 2.04 GiB
Duration : 2 h 10 min
Overall bit rate : 2 239 kb/s
Movie name : Dawn.of.the.Planet.of.the.Apes.2014.1080p.10bit.BluRay.8CH.x265.HEVC

Video
ID : 1
Format : HEVC
Format/Info : High Efficiency Video Coding
Format profile : Main [email protected]@Main
Codec ID : V_MPEGH/ISO/HEVC
Duration : 2 h 10 min
Bit rate : 1 701 kb/s
Width : 1 920 pixels
Height : 1 080 pixels
Display aspect ratio : 1.85:1
Frame rate mode : Constant
Frame rate : 23.976 (24000/1001) FPS
Color space : YUV
Chroma subsampling : 4:2:0
Bit depth : 10 bits
Bits/(Pixel*Frame) : 0.034
Stream size : 1.55 GiB (76%)
Default : Yes
Forced : No
Color range : Limited
Color primaries : BT.2020
Transfer characteristics : PQ
Matrix coefficients : BT.2020 non-constant

Audio
ID : 2
Format : AAC LC
Codec ID : A_AAC-2
Duration : 2 h 10 min
Bit rate : 256 kb/s
Channel(s) : 8 channels
Channel layout : C L R Ls Rs Lw Rw LFE
Sampling rate : 48.0 kHz
Frame rate : 46.875 FPS (1024 SPF)
Compression mode : Lossy
Delay relative to video : -21 ms
Stream size : 239 MiB (11%)
Language : English
Default : Yes
Forced : No

Text #1
ID : 3
Format : PGS
Muxing mode : zlib
Codec ID : S_HDMV/PGS
Duration : 1 h 58 min
Bit rate : 22.9 kb/s
Count of elements : 2562
Stream size : 19.5 MiB (1%)
Title : English-PGS
Language : English
Default : Yes
Forced : Yes

Text #2
ID : 4
Format : PGS
Muxing mode : zlib
Codec ID : S_HDMV/PGS
Duration : 2 h 9 min
Bit rate : 14.4 kb/s
Count of elements : 1716
Stream size : 13.3 MiB (1%)
Title : Spanish-PGS
Language : Spanish
Default : No
Forced : No

Text #3
ID : 5
Format : PGS
Muxing mode : zlib
Codec ID : S_HDMV/PGS
Duration : 2 h 9 min
Bit rate : 11.7 kb/s
Count of elements : 1574
Stream size : 10.8 MiB (1%)
Title : French-PGS
Language : French
Default : No
Forced : No

Text #4
ID : 6
Format : PGS
Muxing mode : zlib
Codec ID : S_HDMV/PGS
Duration : 2 h 9 min
Bit rate : 13.7 kb/s
Count of elements : 1728
Stream size : 12.7 MiB (1%)
Title : Spanish-PGS
Language : Spanish
Default : No
Forced : No

Text #5
ID : 7
Format : PGS
Muxing mode : zlib
Codec ID : S_HDMV/PGS
Duration : 2 h 9 min
Bit rate : 13.2 kb/s
Count of elements : 1626
Stream size : 12.2 MiB (1%)
Title : Danish-PGS
Language : Danish
Default : No
Forced : No

Text #6
ID : 8
Format : PGS
Muxing mode : zlib
Codec ID : S_HDMV/PGS
Duration : 2 h 9 min
Bit rate : 12.1 kb/s
Count of elements : 1532
Stream size : 11.2 MiB (1%)
Title : Dutch-PGS
Language : Dutch
Default : No
Forced : No

Text #7
ID : 9
Format : PGS
Muxing mode : zlib
Codec ID : S_HDMV/PGS
Duration : 2 h 9 min
Bit rate : 12.3 kb/s
Count of elements : 1688
Stream size : 11.4 MiB (1%)
Title : Finnish-PGS
Language : Finnish
Default : No
Forced : No

Text #8
ID : 10
Format : PGS
Muxing mode : zlib
Codec ID : S_HDMV/PGS
Duration : 2 h 9 min
Bit rate : 14.8 kb/s
Count of elements : 1704
Stream size : 13.7 MiB (1%)
Title : German-PGS
Language : German
Default : No
Forced : No

Text #9
ID : 11
Format : PGS
Muxing mode : zlib
Codec ID : S_HDMV/PGS
Duration : 2 h 9 min
Bit rate : 13.4 kb/s
Count of elements : 1754
Stream size : 12.4 MiB (1%)
Title : Italian-PGS
Language : Italian
Default : No
Forced : No

Text #10
ID : 12
Format : PGS
Muxing mode : zlib
Codec ID : S_HDMV/PGS
Duration : 2 h 9 min
Bit rate : 9 641 b/s
Count of elements : 1526
Stream size : 8.91 MiB (0%)
Title : Japanese-PGS
Language : Japanese
Default : No
Forced : No

Text #11
ID : 13
Format : PGS
Muxing mode : zlib
Codec ID : S_HDMV/PGS
Duration : 1 h 40 min
Bit rate : 2 086 b/s
Count of elements : 250
Stream size : 1.49 MiB (0%)
Title : Japanese-PGS
Language : Japanese
Default : No
Forced : No

Text #12
ID : 14
Format : PGS
Muxing mode : zlib
Codec ID : S_HDMV/PGS
Duration : 2 h 9 min
Bit rate : 13.3 kb/s
Count of elements : 1746
Stream size : 12.3 MiB (1%)
Title : Norwegian-PGS
Language : Norwegian
Default : No
Forced : No

Text #13
ID : 15
Format : PGS
Muxing mode : zlib
Codec ID : S_HDMV/PGS
Duration : 2 h 9 min
Bit rate : 13.5 kb/s
Count of elements : 1750
Stream size : 12.5 MiB (1%)
Title : Swedish-PGS
Language : Swedish
Default : No
Forced : No

Text #14
ID : 16
Format : PGS
Muxing mode : zlib
Codec ID : S_HDMV/PGS
Duration : 2 h 9 min
Bit rate : 11.0 kb/s
Count of elements : 1764
Stream size : 10.2 MiB (0%)
Title : Chinese-PGS
Language : Chinese
Default : No
Forced : No

Text #15
ID : 17
Format : PGS
Muxing mode : zlib
Codec ID : S_HDMV/PGS
Duration : 2 h 9 min
Bit rate : 11.0 kb/s
Count of elements : 1825
Stream size : 10.2 MiB (0%)
Title : Chinese-PGS
Language : Chinese
Default : No
Forced : No

Text #16
ID : 18
Format : PGS
Muxing mode : zlib
Codec ID : S_HDMV/PGS
Duration : 2 h 1 min
Bit rate : 77.9 kb/s
Count of elements : 4148
Stream size : 67.8 MiB (3%)
Title : English-COMMENTARY-PGS
Language : English
Default : No
Forced : No

Text #17
ID : 19
Format : PGS
Muxing mode : zlib
Codec ID : S_HDMV/PGS
Duration : 2 h 9 min
Bit rate : 63.2 kb/s
Count of elements : 4042
Stream size : 58.7 MiB (3%)
Title : French-COMMENTARY-PGS
Language : French
Default : No
Forced : No

Text #18
ID : 20
Format : PGS
Muxing mode : zlib
Codec ID : S_HDMV/PGS
Duration : 2 h 9 min
Bit rate : 62.9 kb/s
Count of elements : 4056
Stream size : 58.4 MiB (3%)
Title : Spanish-COMMENTARY-PGS
Language : Spanish
Default : No
Forced : No

Text #19
ID : 21
Format : PGS
Muxing mode : zlib
Codec ID : S_HDMV/PGS
Duration : 2 h 9 min
Bit rate : 58.3 kb/s
Count of elements : 4054
Stream size : 54.1 MiB (3%)
Title : Danish-COMMENTARY-PGS
Language : Danish
Default : No
Forced : No

Text #20
ID : 22
Format : PGS
Muxing mode : zlib
Codec ID : S_HDMV/PGS
Duration : 2 h 9 min
Bit rate : 61.7 kb/s
Count of elements : 4024
Stream size : 57.3 MiB (3%)
Title : Dutch-COMMENTARY-PGS
Language : Dutch
Default : No
Forced : No

Text #21
ID : 23
Format : PGS
Muxing mode : zlib
Codec ID : S_HDMV/PGS
Duration : 2 h 9 min
Bit rate : 61.6 kb/s
Count of elements : 4054
Stream size : 57.2 MiB (3%)
Title : Finnish-COMMENTARY-PGS
Language : Finnish
Default : No
Forced : No

Text #22
ID : 24
Format : PGS
Muxing mode : zlib
Codec ID : S_HDMV/PGS
Duration : 2 h 9 min
Bit rate : 67.0 kb/s
Count of elements : 4052
Stream size : 62.2 MiB (3%)
Title : German-COMMENTARY-PGS
Language : German
Default : No
Forced : No

Text #23
ID : 25
Format : PGS
Muxing mode : zlib
Codec ID : S_HDMV/PGS
Duration : 2 h 9 min
Bit rate : 59.6 kb/s
Count of elements : 4056
Stream size : 55.3 MiB (3%)
Title : Italian-COMMENTARY-PGS
Language : Italian
Default : No
Forced : No

Text #24
ID : 26
Format : PGS
Muxing mode : zlib
Codec ID : S_HDMV/PGS
Duration : 2 h 9 min
Bit rate : 38.6 kb/s
Count of elements : 2960
Stream size : 35.9 MiB (2%)
Title : Japanese-COMMENTARY-PGS
Language : Japanese
Default : No
Forced : No

Text #25
ID : 27
Format : PGS
Muxing mode : zlib
Codec ID : S_HDMV/PGS
Duration : 2 h 9 min
Bit rate : 61.8 kb/s
Count of elements : 4054
Stream size : 57.3 MiB (3%)
Title : Norwegian-COMMENTARY-PGS
Language : Norwegian
Default : No
Forced : No

Text #26
ID : 28
Format : PGS
Muxing mode : zlib
Codec ID : S_HDMV/PGS
Duration : 2 h 9 min
Bit rate : 62.2 kb/s
Count of elements : 4056
Stream size : 57.8 MiB (3%)
Title : Swedish-COMMENTARY-PGS
Language : Swedish
Default : No
Forced : No

Text #27
ID : 29
Format : PGS
Muxing mode : zlib
Codec ID : S_HDMV/PGS
Duration : 1 h 40 min
Bit rate : 1 873 b/s
Count of elements : 252
Stream size : 1.34 MiB (0%)
Title : English-FORCED-PGS
Language : English
Default : No
Forced : No

[collapse]
Download Link(s)

Part01 Part02

Direct download files get automatically deleted after a month or so. Posted on : 06/19/2020

[collapse]
Magnet Link

Magnet

Dawn.of.the.Planet.of.the.Apes.2014.2160p.BluRay.REMUX.HEVC.DTS-HD.MA.7.1-FGT-41.28 GB

[collapse]

Media information

General
Format : Matroska
Format version : Version 4
File size : 1.16 GiB
Duration : 2 h 10 min
Overall bit rate : 1 275 kb/s
Movie name : Dawn.of.the.Planet.of.the.Apes.2014.720p.10bit.BluRay.6CH.x265.HEVC

Video
ID : 1
Format : HEVC
Format/Info : High Efficiency Video Coding
Format profile : Main [email protected]@Main
Codec ID : V_MPEGH/ISO/HEVC
Duration : 2 h 10 min
Bit rate : 801 kb/s
Width : 1 280 pixels
Height : 720 pixels
Display aspect ratio : 1.85:1
Frame rate mode : Constant
Frame rate : 23.976 (24000/1001) FPS
Color space : YUV
Chroma subsampling : 4:2:0
Bit depth : 10 bits
Bits/(Pixel*Frame) : 0.036
Stream size : 747 MiB (63%)
Default : Yes
Forced : No
Color range : Limited
Color primaries : BT.2020
Transfer characteristics : PQ
Matrix coefficients : BT.2020 non-constant

Audio
ID : 2
Format : AAC LC
Codec ID : A_AAC-2
Duration : 2 h 10 min
Bit rate : 192 kb/s
Channel(s) : 6 channels
Channel layout : C L R Ls Rs LFE
Sampling rate : 48.0 kHz
Frame rate : 46.875 FPS (1024 SPF)
Compression mode : Lossy
Delay relative to video : -21 ms
Stream size : 179 MiB (15%)
Language : English
Default : Yes
Forced : No

Text #1
ID : 3
Format : PGS
Muxing mode : zlib
Codec ID : S_HDMV/PGS
Duration : 1 h 58 min
Bit rate : 22.9 kb/s
Count of elements : 2562
Stream size : 19.5 MiB (2%)
Title : English-PGS
Language : English
Default : Yes
Forced : Yes

Text #2
ID : 4
Format : PGS
Muxing mode : zlib
Codec ID : S_HDMV/PGS
Duration : 2 h 9 min
Bit rate : 14.4 kb/s
Count of elements : 1716
Stream size : 13.3 MiB (1%)
Title : Spanish-PGS
Language : Spanish
Default : No
Forced : No

Text #3
ID : 5
Format : PGS
Muxing mode : zlib
Codec ID : S_HDMV/PGS
Duration : 2 h 9 min
Bit rate : 11.7 kb/s
Count of elements : 1574
Stream size : 10.8 MiB (1%)
Title : French-PGS
Language : French
Default : No
Forced : No

Text #4
ID : 6
Format : PGS
Muxing mode : zlib
Codec ID : S_HDMV/PGS
Duration : 2 h 9 min
Bit rate : 13.7 kb/s
Count of elements : 1728
Stream size : 12.7 MiB (1%)
Title : Spanish-PGS
Language : Spanish
Default : No
Forced : No

Text #5
ID : 7
Format : PGS
Muxing mode : zlib
Codec ID : S_HDMV/PGS
Duration : 2 h 9 min
Bit rate : 13.2 kb/s
Count of elements : 1626
Stream size : 12.2 MiB (1%)
Title : Danish-PGS
Language : Danish
Default : No
Forced : No

Text #6
ID : 8
Format : PGS
Muxing mode : zlib
Codec ID : S_HDMV/PGS
Duration : 2 h 9 min
Bit rate : 12.1 kb/s
Count of elements : 1532
Stream size : 11.2 MiB (1%)
Title : Dutch-PGS
Language : Dutch
Default : No
Forced : No

Text #7
ID : 9
Format : PGS
Muxing mode : zlib
Codec ID : S_HDMV/PGS
Duration : 2 h 9 min
Bit rate : 12.3 kb/s
Count of elements : 1688
Stream size : 11.4 MiB (1%)
Title : Finnish-PGS
Language : Finnish
Default : No
Forced : No

Text #8
ID : 10
Format : PGS
Muxing mode : zlib
Codec ID : S_HDMV/PGS
Duration : 2 h 9 min
Bit rate : 14.8 kb/s
Count of elements : 1704
Stream size : 13.7 MiB (1%)
Title : German-PGS
Language : German
Default : No
Forced : No

Text #9
ID : 11
Format : PGS
Muxing mode : zlib
Codec ID : S_HDMV/PGS
Duration : 2 h 9 min
Bit rate : 13.4 kb/s
Count of elements : 1754
Stream size : 12.4 MiB (1%)
Title : Italian-PGS
Language : Italian
Default : No
Forced : No

Text #10
ID : 12
Format : PGS
Muxing mode : zlib
Codec ID : S_HDMV/PGS
Duration : 2 h 9 min
Bit rate : 9 641 b/s
Count of elements : 1526
Stream size : 8.91 MiB (1%)
Title : Japanese-PGS
Language : Japanese
Default : No
Forced : No

Text #11
ID : 13
Format : PGS
Muxing mode : zlib
Codec ID : S_HDMV/PGS
Duration : 1 h 40 min
Bit rate : 2 086 b/s
Count of elements : 250
Stream size : 1.49 MiB (0%)
Title : Japanese-PGS
Language : Japanese
Default : No
Forced : No

Text #12
ID : 14
Format : PGS
Muxing mode : zlib
Codec ID : S_HDMV/PGS
Duration : 2 h 9 min
Bit rate : 13.3 kb/s
Count of elements : 1746
Stream size : 12.3 MiB (1%)
Title : Norwegian-PGS
Language : Norwegian
Default : No
Forced : No

Text #13
ID : 15
Format : PGS
Muxing mode : zlib
Codec ID : S_HDMV/PGS
Duration : 2 h 9 min
Bit rate : 13.5 kb/s
Count of elements : 1750
Stream size : 12.5 MiB (1%)
Title : Swedish-PGS
Language : Swedish
Default : No
Forced : No

Text #14
ID : 16
Format : PGS
Muxing mode : zlib
Codec ID : S_HDMV/PGS
Duration : 2 h 9 min
Bit rate : 11.0 kb/s
Count of elements : 1764
Stream size : 10.2 MiB (1%)
Title : Chinese-PGS
Language : Chinese
Default : No
Forced : No

Text #15
ID : 17
Format : PGS
Muxing mode : zlib
Codec ID : S_HDMV/PGS
Duration : 2 h 9 min
Bit rate : 11.0 kb/s
Count of elements : 1825
Stream size : 10.2 MiB (1%)
Title : Chinese-PGS
Language : Chinese
Default : No
Forced : No

Text #16
ID : 18
Format : PGS
Muxing mode : zlib
Codec ID : S_HDMV/PGS
Duration : 2 h 1 min
Bit rate : 77.9 kb/s
Count of elements : 4148
Stream size : 67.8 MiB (6%)
Title : English-COMMENTARY-PGS
Language : English
Default : No
Forced : No

Text #17
ID : 19
Format : PGS
Muxing mode : zlib
Codec ID : S_HDMV/PGS
Duration : 2 h 9 min
Bit rate : 63.2 kb/s
Count of elements : 4042
Stream size : 58.7 MiB (5%)
Title : French-COMMENTARY-PGS
Language : French
Default : No
Forced : No

Text #18
ID : 20
Format : PGS
Muxing mode : zlib
Codec ID : S_HDMV/PGS
Duration : 2 h 9 min
Bit rate : 62.9 kb/s
Count of elements : 4056
Stream size : 58.4 MiB (5%)
Title : Spanish-COMMENTARY-PGS
Language : Spanish
Default : No
Forced : No

Text #19
ID : 21
Format : PGS
Muxing mode : zlib
Codec ID : S_HDMV/PGS
Duration : 2 h 9 min
Bit rate : 58.3 kb/s
Count of elements : 4054
Stream size : 54.1 MiB (5%)
Title : Danish-COMMENTARY-PGS
Language : Danish
Default : No
Forced : No

Text #20
ID : 22
Format : PGS
Muxing mode : zlib
Codec ID : S_HDMV/PGS
Duration : 2 h 9 min
Bit rate : 61.7 kb/s
Count of elements : 4024
Stream size : 57.3 MiB (5%)
Title : Dutch-COMMENTARY-PGS
Language : Dutch
Default : No
Forced : No

Text #21
ID : 23
Format : PGS
Muxing mode : zlib
Codec ID : S_HDMV/PGS
Duration : 2 h 9 min
Bit rate : 61.6 kb/s
Count of elements : 4054
Stream size : 57.2 MiB (5%)
Title : Finnish-COMMENTARY-PGS
Language : Finnish
Default : No
Forced : No

Text #22
ID : 24
Format : PGS
Muxing mode : zlib
Codec ID : S_HDMV/PGS
Duration : 2 h 9 min
Bit rate : 67.0 kb/s
Count of elements : 4052
Stream size : 62.2 MiB (5%)
Title : German-COMMENTARY-PGS
Language : German
Default : No
Forced : No

Text #23
ID : 25
Format : PGS
Muxing mode : zlib
Codec ID : S_HDMV/PGS
Duration : 2 h 9 min
Bit rate : 59.6 kb/s
Count of elements : 4056
Stream size : 55.3 MiB (5%)
Title : Italian-COMMENTARY-PGS
Language : Italian
Default : No
Forced : No

Text #24
ID : 26
Format : PGS
Muxing mode : zlib
Codec ID : S_HDMV/PGS
Duration : 2 h 9 min
Bit rate : 38.6 kb/s
Count of elements : 2960
Stream size : 35.9 MiB (3%)
Title : Japanese-COMMENTARY-PGS
Language : Japanese
Default : No
Forced : No

Text #25
ID : 27
Format : PGS
Muxing mode : zlib
Codec ID : S_HDMV/PGS
Duration : 2 h 9 min
Bit rate : 61.8 kb/s
Count of elements : 4054
Stream size : 57.3 MiB (5%)
Title : Norwegian-COMMENTARY-PGS
Language : Norwegian
Default : No
Forced : No

Text #26
ID : 28
Format : PGS
Muxing mode : zlib
Codec ID : S_HDMV/PGS
Duration : 2 h 9 min
Bit rate : 62.2 kb/s
Count of elements : 4056
Stream size : 57.8 MiB (5%)
Title : Swedish-COMMENTARY-PGS
Language : Swedish
Default : No
Forced : No

Text #27
ID : 29
Format : PGS
Muxing mode : zlib
Codec ID : S_HDMV/PGS
Duration : 1 h 40 min
Bit rate : 1 873 b/s
Count of elements : 252
Stream size : 1.34 MiB (0%)
Title : English-FORCED-PGS
Language : English
Default : No
Forced : No

[collapse]
Download Link(s)

Download

Direct download files get automatically deleted after a month or so. Posted on : 06/19/2020

[collapse]
Magnet Link

Magnet

Dawn.of.the.Planet.of.the.Apes.2014.2160p.BluRay.REMUX.HEVC.DTS-HD.MA.7.1-FGT-41.28 GB

[collapse]

You may also like...

error: nah :p~