Deadwood: The Movie (2019)

Deadwood (original title)|Western | TV Movie 31 May 2019

Feature film based on the TV series, ‘Deadwood’.

Watch trailer

Media information

General
Format : Matroska
Format version : Version 4
File size : 826 MiB
Duration : 1 h 50 min
Overall bit rate : 1 048 kb/s
Movie name : Deadwood.The.Movie.2019.720p.WEBRip.2CH.x265.HEVC
Encoded date : UTC 2019-06-01 14:41:09
Writing application : mkvmerge v34.0.0 (‘Sight and Seen’) 32-bit
Writing library : libebml v1.3.7 + libmatroska v1.5.0

Video
ID : 1
Format : HEVC
Format/Info : High Efficiency Video Coding
Format profile : [email protected]@Main
Codec ID : V_MPEGH/ISO/HEVC
Duration : 1 h 50 min
Bit rate : 984 kb/s
Width : 1 280 pixels
Height : 640 pixels
Display aspect ratio : 2.000
Frame rate mode : Constant
Frame rate : 23.976 (24000/1001) FPS
Color space : YUV
Chroma subsampling : 4:2:0
Bit depth : 8 bits
Bits/(Pixel*Frame) : 0.050
Stream size : 775 MiB (94%)
Default : Yes
Forced : No

Audio
ID : 2
Format : AAC LC SBR
Commercial name : HE-AAC
Format settings : Explicit
Codec ID : A_AAC-2
Duration : 1 h 50 min
Bit rate : 61.9 kb/s
Channel(s) : 2 channels
Channel layout : L R
Sampling rate : 48.0 kHz
Frame rate : 23.438 FPS (2048 SPF)
Compression mode : Lossy
Delay relative to video : 23 ms
Stream size : 48.8 MiB (6%)
Language : English
Default : Yes
Forced : No

Text
ID : 3
Format : UTF-8
Codec ID : S_TEXT/UTF8
Codec ID/Info : UTF-8 Plain Text
Duration : 1 h 49 min
Bit rate : 63 b/s
Count of elements : 1905
Stream size : 50.9 KiB (0%)
Language : English
Default : Yes
Forced : No

[collapse]
Download Link(s)

Download

Direct download files get automatically deleted after a month or so. Posted on : 06/01/2019

[collapse]
Magnet Link

Magnet

Deadwood.The.Movie.2019.1080p.AMZN.WEBRip.DDP5.1.x264-NTb-7.78 GB

[collapse]

You may also like...

error: nah :p~