Deja Vu (2006)

PG-13 | 2h 6min | Action, Crime, Sci-Fi | 22 November 2006 (USA)

After a ferry is bombed in New Orleans, an A.T.F. agent joins a unique investigation using experimental surveillance technology to find the bomber, but soon finds himself becoming obsessed with one of the victims.

Watch trailer

Media information

General
Format : Matroska
Format version : Version 4
File size : 858 MiB
Duration : 2 h 6 min
Overall bit rate : 948 kb/s
Movie name : Deja.Vu.2006.720p.BluRay.2CH.x265.HEVC
Encoded date : UTC 2018-09-09 19:38:42
Writing application : mkvmerge v26.0.0 (‘In The Game’) 32-bit
Writing library : libebml v1.3.6 + libmatroska v1.4.9

Video
ID : 1
Format : HEVC
Format/Info : High Efficiency Video Coding
Format profile : [email protected]@Main
Codec ID : V_MPEGH/ISO/HEVC
Duration : 2 h 6 min
Bit rate : 850 kb/s
Width : 1 280 pixels
Height : 534 pixels
Display aspect ratio : 2.40:1
Original display aspect ratio : 2.40:1
Frame rate mode : Constant
Frame rate : 23.976 (24000/1001) FPS
Color space : YUV
Chroma subsampling : 4:2:0
Bit depth : 8 bits
Bits/(Pixel*Frame) : 0.052
Stream size : 768 MiB (90%)
Default : Yes
Forced : No
Color range : Limited
Color primaries : BT.709
Transfer characteristics : BT.709
Matrix coefficients : BT.709

Audio
ID : 2
Format : AAC LC
Codec ID : A_AAC-2
Duration : 2 h 6 min
Bit rate : 96.0 kb/s
Channel(s) : 2 channels
Channel layout : L R
Sampling rate : 48.0 kHz
Frame rate : 46.875 FPS (1024 SPF)
Compression mode : Lossy
Delay relative to video : 20 ms
Stream size : 87.1 MiB (10%)
Title : Stereo
Language : English
Default : Yes
Forced : No

Text
ID : 3
Format : ASS
Codec ID : S_TEXT/ASS
Codec ID/Info : Advanced Sub Station Alpha
Duration : 1 h 55 min
Bit rate : 110 b/s
Count of elements : 1536
Compression mode : Lossless
Stream size : 93.8 KiB (0%)
Language : English
Default : Yes
Forced : Yes

[collapse]
Download Link(s)

Download

Direct download files get automatically deleted after a month or so. Posted on : 09/09/2018

[collapse]
Magnet Link

Magnet

Source : Deja Vu 2006 (1080p Bluray x265 HEVC 10bit AAC 5.1 Tigole)-5.2 GB

[collapse]

Media information

General
Format : Matroska
Format version : Version 4
File size : 1.91 GiB
Duration : 2 h 6 min
Overall bit rate : 2 164 kb/s
Movie name : Deja.Vu.2006.1080p.10bit.BluRay.6CH.x265.HEVC
Encoded date : UTC 2018-09-08 16:48:47
Writing application : mkvmerge v26.0.0 (‘In The Game’) 32-bit
Writing library : libebml v1.3.6 + libmatroska v1.4.9

Video
ID : 1
Format : HEVC
Format/Info : High Efficiency Video Coding
Format profile : Main [email protected]@Main
Codec ID : V_MPEGH/ISO/HEVC
Duration : 2 h 6 min
Bit rate : 1 640 kb/s
Width : 1 920 pixels
Height : 800 pixels
Display aspect ratio : 2.40:1
Frame rate mode : Constant
Frame rate : 23.976 (24000/1001) FPS
Color space : YUV
Chroma subsampling : 4:2:0
Bit depth : 10 bits
Bits/(Pixel*Frame) : 0.045
Stream size : 1.45 GiB (76%)
Default : Yes
Forced : No

Audio #1
ID : 2
Format : AAC LC
Codec ID : A_AAC-2
Duration : 2 h 6 min
Bit rate : 497 kb/s
Channel(s) : 6 channels
Channel layout : C L R Ls Rs LFE
Sampling rate : 48.0 kHz
Frame rate : 46.875 FPS (1024 SPF)
Compression mode : Lossy
Delay relative to video : 20 ms
Stream size : 449 MiB (23%)
Language : English
Default : No
Forced : No

Audio #2
ID : 3
Format : AAC LC SBR
Commercial name : HE-AAC
Format settings : Explicit
Codec ID : A_AAC-2
Duration : 2 h 6 min
Bit rate : 25.1 kb/s
Channel(s) : 2 channels
Channel layout : L R
Sampling rate : 24.0 kHz
Frame rate : 11.719 FPS (2048 SPF)
Compression mode : Lossy
Delay relative to video : 61 ms
Stream size : 22.7 MiB (1%)
Language : English
Default : No
Forced : No

Text
ID : 4
Format : UTF-8
Codec ID : S_TEXT/UTF8
Codec ID/Info : UTF-8 Plain Text
Duration : 1 h 55 min
Bit rate : 68 b/s
Count of elements : 1536
Stream size : 58.2 KiB (0%)
Language : English
Default : Yes
Forced : No

[collapse]
Download Link(s)

Part01 Part02

Direct download files get automatically deleted after a month or so. Posted on : 09/08/2018

[collapse]
Magnet Link

Magnet

Source : Deja Vu 2006 (1080p Bluray x265 HEVC 10bit AAC 5.1 Tigole)-5.2 GB

[collapse]

You may also like...

error: nah :p~