Diggstown (1992)

R | 1h 38min | Drama, Sport | 14 August 1992 (USA)

Gabriel Caine has just been released from prison when he sets up a bet with a business man. The business man owns most of a boxing-mad town called Diggstown. The bet is that Gabe can find a boxer that will knock out ten Diggstown men, in a boxing ring, within twenty-four hours. “Honey” Roy Palmer is that man, although at forty-eight, many say he is too old. A subplot was thrown in about Charles Macum Diggs, the heavyweight champion that gave the town its name, and who is now confined to a wheelchair.

Watch trailer

Media information

General
Format : Matroska
Format version : Version 4
File size : 1.14 GiB
Duration : 1 h 37 min
Overall bit rate : 1 663 kb/s
Movie name : Diggstown.1992.1080p.10bit.BluRay.2CH.x265.HEVC

Video
ID : 1
Format : HEVC
Format/Info : High Efficiency Video Coding
Format profile : Main [email protected]@Main
Codec ID : V_MPEGH/ISO/HEVC
Duration : 1 h 37 min
Bit rate : 1 500 kb/s
Width : 1 920 pixels
Height : 1 040 pixels
Display aspect ratio : 1.85:1
Frame rate mode : Constant
Frame rate : 23.976 (24000/1001) FPS
Color space : YUV
Chroma subsampling : 4:2:0
Bit depth : 10 bits
Bits/(Pixel*Frame) : 0.031
Stream size : 1.03 GiB (90%)
Default : Yes
Forced : No
Color range : Limited
Color primaries : BT.709
Transfer characteristics : BT.709
Matrix coefficients : BT.709

Audio
ID : 2
Format : AAC LC
Codec ID : A_AAC-2
Duration : 1 h 37 min
Bit rate : 161 kb/s
Channel(s) : 2 channels
Channel layout : L R
Sampling rate : 48.0 kHz
Frame rate : 46.875 FPS (1024 SPF)
Compression mode : Lossy
Delay relative to video : -21 ms
Stream size : 113 MiB (10%)
Language : English
Default : Yes
Forced : No

Text
ID : 3
Format : UTF-8
Codec ID : S_TEXT/UTF8
Codec ID/Info : UTF-8 Plain Text
Duration : 1 h 34 min
Bit rate : 69 b/s
Count of elements : 1445
Stream size : 47.6 KiB (0%)
Language : English
Default : Yes
Forced : No

[collapse]
Download Link(s)

Download

Direct download files get automatically deleted after a month or so. Posted on : 07/21/2020

[collapse]
Magnet Link

Magnet

Diggstown.1992.1080p.BluRay.x264-SiNNERS-7.05GB

[collapse]

Media information

General
Format : Matroska
Format version : Version 4
File size : 618 MiB
Duration : 1 h 37 min
Overall bit rate : 881 kb/s
Movie name : Diggstown.1992.720p.10bit.BluRay.2CH.x265.HEVC

Video
ID : 1
Format : HEVC
Format/Info : High Efficiency Video Coding
Format profile : Main [email protected]@Main
Codec ID : V_MPEGH/ISO/HEVC
Duration : 1 h 37 min
Bit rate : 751 kb/s
Width : 1 280 pixels
Height : 694 pixels
Display aspect ratio : 1.85:1
Frame rate mode : Constant
Frame rate : 23.976 (24000/1001) FPS
Color space : YUV
Chroma subsampling : 4:2:0
Bit depth : 10 bits
Bits/(Pixel*Frame) : 0.035
Stream size : 526 MiB (85%)
Default : Yes
Forced : No
Color range : Limited
Color primaries : BT.709
Transfer characteristics : BT.709
Matrix coefficients : BT.709

Audio
ID : 2
Format : AAC LC
Codec ID : A_AAC-2
Duration : 1 h 37 min
Bit rate : 129 kb/s
Channel(s) : 2 channels
Channel layout : L R
Sampling rate : 48.0 kHz
Frame rate : 46.875 FPS (1024 SPF)
Compression mode : Lossy
Delay relative to video : -21 ms
Stream size : 90.1 MiB (15%)
Language : English
Default : Yes
Forced : No

Text
ID : 3
Format : UTF-8
Codec ID : S_TEXT/UTF8
Codec ID/Info : UTF-8 Plain Text
Duration : 1 h 34 min
Bit rate : 69 b/s
Count of elements : 1445
Stream size : 47.6 KiB (0%)
Language : English
Default : Yes
Forced : No

[collapse]
Download Link(s)

Download

Direct download files get automatically deleted after a month or so. Posted on : 07/21/2020

[collapse]
Magnet Link

Magnet

Diggstown.1992.1080p.BluRay.x264-SiNNERS-7.05GB

[collapse]

You may also like...

error: nah :p~