Don’t Breathe (2016)

R | 1h 28min | Crime, Horror, Thriller | 26 August 2016 (USA)

Hoping to walk away with a massive fortune, a trio of thieves break into the house of a blind man who isn’t as helpless as he seems.

Watch trailer

Media information

General
Format : Matroska
Format version : Version 4
File size : 619 MiB
Duration : 1 h 28 min
Overall bit rate : 978 kb/s
Movie name : Don’t.Breathe.2016.720p.10bit.BluRay.6CH.x265.HEVC
Encoded date : UTC 2019-07-16 22:22:51
Writing application : mkvmerge v35.0.0 (‘All The Love In The World’) 32-bit
Writing library : libebml v1.3.9 + libmatroska v1.5.2

Video
ID : 1
Format : HEVC
Format/Info : High Efficiency Video Coding
Format profile : Main [email protected]@Main
Codec ID : V_MPEGH/ISO/HEVC
Duration : 1 h 28 min
Bit rate : 766 kb/s
Width : 1 280 pixels
Height : 536 pixels
Display aspect ratio : 2.40:1
Frame rate mode : Constant
Frame rate : 23.976 (24000/1001) FPS
Color space : YUV
Chroma subsampling : 4:2:0
Bit depth : 10 bits
Bits/(Pixel*Frame) : 0.047
Stream size : 485 MiB (78%)
Default : Yes
Forced : No

Audio
ID : 2
Format : AAC LC SBR
Commercial name : HE-AAC
Format settings : Explicit
Codec ID : A_AAC-2
Duration : 1 h 28 min
Bit rate : 209 kb/s
Channel(s) : 6 channels
Channel layout : C L R Ls Rs LFE
Sampling rate : 48.0 kHz
Frame rate : 23.438 FPS (2048 SPF)
Compression mode : Lossy
Delay relative to video : 23 ms
Stream size : 133 MiB (21%)
Language : English
Default : Yes
Forced : No

Text
ID : 3
Format : UTF-8
Codec ID : S_TEXT/UTF8
Codec ID/Info : UTF-8 Plain Text
Duration : 1 h 20 min
Bit rate : 22 b/s
Count of elements : 417
Stream size : 13.3 KiB (0%)
Title : ENG
Language : English
Default : Yes
Forced : No

[collapse]
Download Link(s)

Download

Direct download files get automatically deleted after a month or so. Posted on : 07/17/2019

[collapse]
Magnet Link

Magnet

Dont.Breathe.2016.1080p.BluRay.REMUX.AVC.DTS-HD.MA.5.1-FGT-19.55 GB

[collapse]

You may also like...

error: nah :p~