E.T. the Extra-Terrestrial (1982)

PG | 1h 55min | Family, Sci-Fi | 11 June 1982 (USA)

A troubled child summons the courage to help a friendly alien escape Earth and return to his home world.

Watch trailer

Media information

General
Format : Matroska
Format version : Version 4 / Version 2
File size : 545 MiB
Duration : 1 h 54 min
Overall bit rate : 665 kb/s
Movie name : E.T.The.Extra-Terrestrial.1982.720p.BluRay.2CH.x265.HEVC
Encoded date : UTC 2018-06-24 16:48:02
Writing application : mkvmerge v24.0.0 (‘Beyond The Pale’) 32-bit
Writing library : libebml v1.3.6 + libmatroska v1.4.9

Video
ID : 1
Format : HEVC
Format/Info : High Efficiency Video Coding
Format profile : [email protected]@Main
Codec ID : V_MPEGH/ISO/HEVC
Duration : 1 h 54 min
Bit rate : 538 kb/s
Width : 1 280 pixels
Height : 720 pixels
Display aspect ratio : 1.85:1
Frame rate mode : Constant
Frame rate : 23.976 (24000/1001) FPS
Color space : YUV
Chroma subsampling : 4:2:0
Bit depth : 8 bits
Bits/(Pixel*Frame) : 0.024
Stream size : 441 MiB (81%)
Default : Yes
Forced : No
Color range : Limited
Color primaries : BT.709
Transfer characteristics : BT.709
Matrix coefficients : BT.709

Audio
ID : 2
Format : Opus
Codec ID : A_OPUS
Duration : 1 h 54 min
Bit rate : 125 kb/s
Channel(s) : 2 channels
Channel positions : Front: L R
Sampling rate : 48.0 kHz
Frame rate : 50.000 FPS (960 SPF)
Compression mode : Lossy
Delay relative to video : -7 ms
Stream size : 102 MiB (19%)
Title : Stereo
Language : English
Default : Yes
Forced : No

Text
ID : 3
Format : ASS
Codec ID : S_TEXT/ASS
Codec ID/Info : Advanced Sub Station Alpha
Duration : 1 h 42 min
Bit rate : 60 b/s
Count of elements : 933
Compression mode : Lossless
Stream size : 45.7 KiB (0%)
Language : English
Default : Yes
Forced : Yes

[collapse]
Download Link(s)

Download

[RE-UP] Direct download files get automatically deleted after a month or so. Posted on : 06/24/2018

[collapse]
Magnet Link

Magnet

Source : E.T.The.Extra-Terrestrial.1982.1080p.BluRay.X264-AMIABLE-8.74 GB

[collapse]

You may also like...

error: nah :p~