Earth and Blood (2020)

La terre et le sang (original title)|TV-MA | 1h 20min | Action, Crime, Thriller | TV Movie 17 April 2020

Saïd owns a sawmill deep in the woods, which he decides to sell. Little does he know that one of his apprentices was cornered by his brother and forced to hide a large amount of cocaine inside the factory.

Watch trailer

Media information

General
Format : Matroska
Format version : Version 4
File size : 753 MiB
Duration : 1 h 20 min
Overall bit rate : 1 300 kb/s
Movie name : Earth.and.Blood.2020.1080p.WEB-DL.2CH.x265.HEVC

Video
ID : 1
Format : HEVC
Format/Info : High Efficiency Video Coding
Format profile : [email protected]@Main
Codec ID : V_MPEGH/ISO/HEVC
Duration : 1 h 20 min
Bit rate : 1 201 kb/s
Width : 1 920 pixels
Height : 800 pixels
Display aspect ratio : 2.40:1
Frame rate mode : Constant
Frame rate : 24.000 FPS
Color space : YUV
Chroma subsampling : 4:2:0
Bit depth : 8 bits
Bits/(Pixel*Frame) : 0.033
Stream size : 695 MiB (92%)
Default : Yes
Forced : No
Color range : Limited
Color primaries : BT.709
Transfer characteristics : BT.709
Matrix coefficients : BT.709

Audio
ID : 2
Format : AAC LC
Codec ID : A_AAC-2
Duration : 1 h 20 min
Bit rate : 96.0 kb/s
Channel(s) : 2 channels
Channel layout : L R
Sampling rate : 48.0 kHz
Frame rate : 46.875 FPS (1024 SPF)
Compression mode : Lossy
Delay relative to video : -21 ms
Stream size : 55.3 MiB (7%)
Title : French
Language : French
Default : Yes
Forced : No

Text #1
ID : 3
Format : ASS
Codec ID : S_TEXT/ASS
Duration : 1 h 9 min
Bit rate : 29 b/s
Count of elements : 317
Compression mode : Lossless
Stream size : 14.8 KiB (0%)
Title : English
Language : English
Default : Yes
Forced : Yes

Text #2
ID : 4
Format : ASS
Codec ID : S_TEXT/ASS
Duration : 1 h 15 min
Bit rate : 37 b/s
Count of elements : 321
Compression mode : Lossless
Stream size : 21.0 KiB (0%)
Title : Arabic
Language : Arabic
Default : No
Forced : No

Text #3
ID : 5
Format : ASS
Codec ID : S_TEXT/ASS
Duration : 1 h 19 min
Bit rate : 25 b/s
Count of elements : 322
Compression mode : Lossless
Stream size : 15.0 KiB (0%)
Title : Chinese Simplified
Language : Chinese
Default : No
Forced : No

Text #4
ID : 6
Format : ASS
Codec ID : S_TEXT/ASS
Duration : 1 h 19 min
Bit rate : 26 b/s
Count of elements : 319
Compression mode : Lossless
Stream size : 15.3 KiB (0%)
Title : Chinese Traditional
Language : Chinese
Default : No
Forced : No

Text #5
ID : 7
Format : ASS
Codec ID : S_TEXT/ASS
Duration : 1 h 19 min
Bit rate : 23 b/s
Count of elements : 317
Compression mode : Lossless
Stream size : 13.7 KiB (0%)
Title : Czech
Language : Czech
Default : No
Forced : No

Text #6
ID : 8
Format : ASS
Codec ID : S_TEXT/ASS
Duration : 1 h 19 min
Bit rate : 22 b/s
Count of elements : 304
Compression mode : Lossless
Stream size : 13.4 KiB (0%)
Title : Danish
Language : Danish
Default : No
Forced : No

Text #7
ID : 9
Format : ASS
Codec ID : S_TEXT/ASS
Duration : 1 h 19 min
Bit rate : 22 b/s
Count of elements : 293
Compression mode : Lossless
Stream size : 13.4 KiB (0%)
Title : Dutch
Language : Dutch
Default : No
Forced : No

Text #8
ID : 10
Format : ASS
Codec ID : S_TEXT/ASS
Duration : 1 h 19 min
Bit rate : 21 b/s
Count of elements : 265
Compression mode : Lossless
Stream size : 12.9 KiB (0%)
Title : Finnish
Language : Finnish
Default : No
Forced : No

Text #9
ID : 11
Format : ASS
Codec ID : S_TEXT/ASS
Duration : 1 h 14 min
Bit rate : 48 b/s
Count of elements : 593
Compression mode : Lossless
Stream size : 26.6 KiB (0%)
Title : French
Language : French
Default : No
Forced : No

Text #10
ID : 12
Format : ASS
Codec ID : S_TEXT/ASS
Duration : 1 h 19 min
Bit rate : 23 b/s
Count of elements : 264
Compression mode : Lossless
Stream size : 13.9 KiB (0%)
Title : German
Language : German
Default : No
Forced : No

Text #11
ID : 13
Format : ASS
Codec ID : S_TEXT/ASS
Duration : 1 h 19 min
Bit rate : 33 b/s
Count of elements : 328
Compression mode : Lossless
Stream size : 19.6 KiB (0%)
Title : Greek
Language : Greek
Default : No
Forced : No

Text #12
ID : 14
Format : ASS
Codec ID : S_TEXT/ASS
Duration : 1 h 19 min
Bit rate : 32 b/s
Count of elements : 319
Compression mode : Lossless
Stream size : 19.0 KiB (0%)
Title : Hebrew
Default : No
Forced : No

Text #13
ID : 15
Format : ASS
Codec ID : S_TEXT/ASS
Duration : 1 h 19 min
Bit rate : 24 b/s
Count of elements : 320
Compression mode : Lossless
Stream size : 14.4 KiB (0%)
Title : Hungarian
Language : Hungarian
Default : No
Forced : No

Text #14
ID : 16
Format : ASS
Codec ID : S_TEXT/ASS
Duration : 1 h 9 min
Bit rate : 29 b/s
Count of elements : 322
Compression mode : Lossless
Stream size : 14.9 KiB (0%)
Title : Indonesian
Default : No
Forced : No

Text #15
ID : 17
Format : ASS
Codec ID : S_TEXT/ASS
Duration : 1 h 19 min
Bit rate : 23 b/s
Count of elements : 302
Compression mode : Lossless
Stream size : 14.0 KiB (0%)
Title : Italian
Language : Italian
Default : No
Forced : No

Text #16
ID : 18
Format : ASS
Codec ID : S_TEXT/ASS
Duration : 1 h 19 min
Bit rate : 23 b/s
Count of elements : 335
Compression mode : Lossless
Stream size : 13.9 KiB (0%)
Title : Japanese
Language : Japanese
Default : No
Forced : No

Text #17
ID : 19
Format : ASS
Codec ID : S_TEXT/ASS
Duration : 1 h 19 min
Bit rate : 27 b/s
Count of elements : 320
Compression mode : Lossless
Stream size : 15.9 KiB (0%)
Title : Korean
Language : Korean
Default : No
Forced : No

Text #18
ID : 20
Format : ASS
Codec ID : S_TEXT/ASS
Duration : 1 h 19 min
Bit rate : 24 b/s
Count of elements : 302
Compression mode : Lossless
Stream size : 14.1 KiB (0%)
Title : Norwegian Bokmal
Language : Norwegian Bokmal
Default : No
Forced : No

Text #19
ID : 21
Format : ASS
Codec ID : S_TEXT/ASS
Duration : 1 h 9 min
Bit rate : 27 b/s
Count of elements : 333
Compression mode : Lossless
Stream size : 14.0 KiB (0%)
Title : Polish
Language : Polish
Default : No
Forced : No

Text #20
ID : 22
Format : ASS
Codec ID : S_TEXT/ASS
Duration : 1 h 19 min
Bit rate : 25 b/s
Count of elements : 320
Compression mode : Lossless
Stream size : 14.8 KiB (0%)
Title : Portuguese
Language : Portuguese
Default : No
Forced : No

Text #21
ID : 23
Format : ASS
Codec ID : S_TEXT/ASS
Duration : 1 h 19 min
Bit rate : 25 b/s
Count of elements : 324
Compression mode : Lossless
Stream size : 15.1 KiB (0%)
Title : Brazilian Portuguese
Language : Portuguese
Default : No
Forced : No

Text #22
ID : 24
Format : ASS
Codec ID : S_TEXT/ASS
Duration : 1 h 9 min
Bit rate : 29 b/s
Count of elements : 291
Compression mode : Lossless
Stream size : 14.8 KiB (0%)
Title : Romanian
Language : Romanian
Default : No
Forced : No

Text #23
ID : 25
Format : ASS
Codec ID : S_TEXT/ASS
Duration : 1 h 19 min
Bit rate : 31 b/s
Count of elements : 293
Compression mode : Lossless
Stream size : 18.4 KiB (0%)
Title : Russian
Language : Russian
Default : No
Forced : No

Text #24
ID : 26
Format : ASS
Codec ID : S_TEXT/ASS
Duration : 1 h 19 min
Bit rate : 25 b/s
Count of elements : 319
Compression mode : Lossless
Stream size : 14.8 KiB (0%)
Title : Spanish
Language : Spanish
Default : No
Forced : No

Text #25
ID : 27
Format : ASS
Codec ID : S_TEXT/ASS
Duration : 1 h 19 min
Bit rate : 24 b/s
Count of elements : 311
Compression mode : Lossless
Stream size : 14.3 KiB (0%)
Title : European Spanish
Language : Spanish
Default : No
Forced : No

Text #26
ID : 28
Format : ASS
Codec ID : S_TEXT/ASS
Duration : 1 h 19 min
Bit rate : 23 b/s
Count of elements : 315
Compression mode : Lossless
Stream size : 13.9 KiB (0%)
Title : Swedish
Language : Swedish
Default : No
Forced : No

Text #27
ID : 29
Format : ASS
Codec ID : S_TEXT/ASS
Duration : 1 h 19 min
Bit rate : 46 b/s
Count of elements : 319
Compression mode : Lossless
Stream size : 27.1 KiB (0%)
Title : Thai
Language : Thai
Default : No
Forced : No

Text #28
ID : 30
Format : ASS
Codec ID : S_TEXT/ASS
Duration : 1 h 19 min
Bit rate : 24 b/s
Count of elements : 319
Compression mode : Lossless
Stream size : 14.3 KiB (0%)
Title : Turkish
Language : Turkish
Default : No
Forced : No

Text #29
ID : 31
Format : ASS
Codec ID : S_TEXT/ASS
Duration : 1 h 19 min
Bit rate : 29 b/s
Count of elements : 322
Compression mode : Lossless
Stream size : 17.5 KiB (0%)
Title : Vietnamese
Language : Vietnamese
Default : No
Forced : No

[collapse]
Download Link(s)

Download

Direct download files get automatically deleted after a month or so. Posted on : 04/19/2020

[collapse]
Magnet Link

Magnet

Earth.and.Blood.2020.1080p.NF.WEB-DL.DDP5.1.x264-CMRG-1.8 GB

[collapse]

Media information

General
Format : Matroska
Format version : Version 4
File size : 512 MiB
Duration : 1 h 20 min
Overall bit rate : 884 kb/s
Movie name : Earth.and.Blood.2020.720p.WEB-DL.2CH.x265.HEVC

Video
ID : 1
Format : HEVC
Format/Info : High Efficiency Video Coding
Format profile : [email protected]@Main
Codec ID : V_MPEGH/ISO/HEVC
Duration : 1 h 20 min
Bit rate : 801 kb/s
Width : 1 280 pixels
Height : 720 pixels
Display aspect ratio : 2.40:1
Frame rate mode : Constant
Frame rate : 24.000 FPS
Color space : YUV
Chroma subsampling : 4:2:0
Bit depth : 8 bits
Bits/(Pixel*Frame) : 0.036
Stream size : 464 MiB (91%)
Default : Yes
Forced : No
Color range : Limited
Color primaries : BT.709
Transfer characteristics : BT.709
Matrix coefficients : BT.709

Audio
ID : 2
Format : AAC LC
Codec ID : A_AAC-2
Duration : 1 h 20 min
Bit rate : 79.6 kb/s
Channel(s) : 2 channels
Channel layout : L R
Sampling rate : 48.0 kHz
Frame rate : 46.875 FPS (1024 SPF)
Compression mode : Lossy
Delay relative to video : -21 ms
Stream size : 46.1 MiB (9%)
Title : French
Language : French
Default : Yes
Forced : No

Text #1
ID : 3
Format : ASS
Codec ID : S_TEXT/ASS
Duration : 1 h 9 min
Bit rate : 29 b/s
Count of elements : 317
Compression mode : Lossless
Stream size : 14.8 KiB (0%)
Title : English
Language : English
Default : Yes
Forced : Yes

Text #2
ID : 4
Format : ASS
Codec ID : S_TEXT/ASS
Duration : 1 h 15 min
Bit rate : 37 b/s
Count of elements : 321
Compression mode : Lossless
Stream size : 21.0 KiB (0%)
Title : Arabic
Language : Arabic
Default : No
Forced : No

Text #3
ID : 5
Format : ASS
Codec ID : S_TEXT/ASS
Duration : 1 h 19 min
Bit rate : 25 b/s
Count of elements : 322
Compression mode : Lossless
Stream size : 15.0 KiB (0%)
Title : Chinese Simplified
Language : Chinese
Default : No
Forced : No

Text #4
ID : 6
Format : ASS
Codec ID : S_TEXT/ASS
Duration : 1 h 19 min
Bit rate : 26 b/s
Count of elements : 319
Compression mode : Lossless
Stream size : 15.3 KiB (0%)
Title : Chinese Traditional
Language : Chinese
Default : No
Forced : No

Text #5
ID : 7
Format : ASS
Codec ID : S_TEXT/ASS
Duration : 1 h 19 min
Bit rate : 23 b/s
Count of elements : 317
Compression mode : Lossless
Stream size : 13.7 KiB (0%)
Title : Czech
Language : Czech
Default : No
Forced : No

Text #6
ID : 8
Format : ASS
Codec ID : S_TEXT/ASS
Duration : 1 h 19 min
Bit rate : 22 b/s
Count of elements : 304
Compression mode : Lossless
Stream size : 13.4 KiB (0%)
Title : Danish
Language : Danish
Default : No
Forced : No

Text #7
ID : 9
Format : ASS
Codec ID : S_TEXT/ASS
Duration : 1 h 19 min
Bit rate : 22 b/s
Count of elements : 293
Compression mode : Lossless
Stream size : 13.4 KiB (0%)
Title : Dutch
Language : Dutch
Default : No
Forced : No

Text #8
ID : 10
Format : ASS
Codec ID : S_TEXT/ASS
Duration : 1 h 19 min
Bit rate : 21 b/s
Count of elements : 265
Compression mode : Lossless
Stream size : 12.9 KiB (0%)
Title : Finnish
Language : Finnish
Default : No
Forced : No

Text #9
ID : 11
Format : ASS
Codec ID : S_TEXT/ASS
Duration : 1 h 14 min
Bit rate : 48 b/s
Count of elements : 593
Compression mode : Lossless
Stream size : 26.6 KiB (0%)
Title : French
Language : French
Default : No
Forced : No

Text #10
ID : 12
Format : ASS
Codec ID : S_TEXT/ASS
Duration : 1 h 19 min
Bit rate : 23 b/s
Count of elements : 264
Compression mode : Lossless
Stream size : 13.9 KiB (0%)
Title : German
Language : German
Default : No
Forced : No

Text #11
ID : 13
Format : ASS
Codec ID : S_TEXT/ASS
Duration : 1 h 19 min
Bit rate : 33 b/s
Count of elements : 328
Compression mode : Lossless
Stream size : 19.6 KiB (0%)
Title : Greek
Language : Greek
Default : No
Forced : No

Text #12
ID : 14
Format : ASS
Codec ID : S_TEXT/ASS
Duration : 1 h 19 min
Bit rate : 32 b/s
Count of elements : 319
Compression mode : Lossless
Stream size : 19.0 KiB (0%)
Title : Hebrew
Default : No
Forced : No

Text #13
ID : 15
Format : ASS
Codec ID : S_TEXT/ASS
Duration : 1 h 19 min
Bit rate : 24 b/s
Count of elements : 320
Compression mode : Lossless
Stream size : 14.4 KiB (0%)
Title : Hungarian
Language : Hungarian
Default : No
Forced : No

Text #14
ID : 16
Format : ASS
Codec ID : S_TEXT/ASS
Duration : 1 h 9 min
Bit rate : 29 b/s
Count of elements : 322
Compression mode : Lossless
Stream size : 14.9 KiB (0%)
Title : Indonesian
Default : No
Forced : No

Text #15
ID : 17
Format : ASS
Codec ID : S_TEXT/ASS
Duration : 1 h 19 min
Bit rate : 23 b/s
Count of elements : 302
Compression mode : Lossless
Stream size : 14.0 KiB (0%)
Title : Italian
Language : Italian
Default : No
Forced : No

Text #16
ID : 18
Format : ASS
Codec ID : S_TEXT/ASS
Duration : 1 h 19 min
Bit rate : 23 b/s
Count of elements : 335
Compression mode : Lossless
Stream size : 13.9 KiB (0%)
Title : Japanese
Language : Japanese
Default : No
Forced : No

Text #17
ID : 19
Format : ASS
Codec ID : S_TEXT/ASS
Duration : 1 h 19 min
Bit rate : 27 b/s
Count of elements : 320
Compression mode : Lossless
Stream size : 15.9 KiB (0%)
Title : Korean
Language : Korean
Default : No
Forced : No

Text #18
ID : 20
Format : ASS
Codec ID : S_TEXT/ASS
Duration : 1 h 19 min
Bit rate : 24 b/s
Count of elements : 302
Compression mode : Lossless
Stream size : 14.1 KiB (0%)
Title : Norwegian Bokmal
Language : Norwegian Bokmal
Default : No
Forced : No

Text #19
ID : 21
Format : ASS
Codec ID : S_TEXT/ASS
Duration : 1 h 9 min
Bit rate : 27 b/s
Count of elements : 333
Compression mode : Lossless
Stream size : 14.0 KiB (0%)
Title : Polish
Language : Polish
Default : No
Forced : No

Text #20
ID : 22
Format : ASS
Codec ID : S_TEXT/ASS
Duration : 1 h 19 min
Bit rate : 25 b/s
Count of elements : 320
Compression mode : Lossless
Stream size : 14.8 KiB (0%)
Title : Portuguese
Language : Portuguese
Default : No
Forced : No

Text #21
ID : 23
Format : ASS
Codec ID : S_TEXT/ASS
Duration : 1 h 19 min
Bit rate : 25 b/s
Count of elements : 324
Compression mode : Lossless
Stream size : 15.1 KiB (0%)
Title : Brazilian Portuguese
Language : Portuguese
Default : No
Forced : No

Text #22
ID : 24
Format : ASS
Codec ID : S_TEXT/ASS
Duration : 1 h 9 min
Bit rate : 29 b/s
Count of elements : 291
Compression mode : Lossless
Stream size : 14.8 KiB (0%)
Title : Romanian
Language : Romanian
Default : No
Forced : No

Text #23
ID : 25
Format : ASS
Codec ID : S_TEXT/ASS
Duration : 1 h 19 min
Bit rate : 31 b/s
Count of elements : 293
Compression mode : Lossless
Stream size : 18.4 KiB (0%)
Title : Russian
Language : Russian
Default : No
Forced : No

Text #24
ID : 26
Format : ASS
Codec ID : S_TEXT/ASS
Duration : 1 h 19 min
Bit rate : 25 b/s
Count of elements : 319
Compression mode : Lossless
Stream size : 14.8 KiB (0%)
Title : Spanish
Language : Spanish
Default : No
Forced : No

Text #25
ID : 27
Format : ASS
Codec ID : S_TEXT/ASS
Duration : 1 h 19 min
Bit rate : 24 b/s
Count of elements : 311
Compression mode : Lossless
Stream size : 14.3 KiB (0%)
Title : European Spanish
Language : Spanish
Default : No
Forced : No

Text #26
ID : 28
Format : ASS
Codec ID : S_TEXT/ASS
Duration : 1 h 19 min
Bit rate : 23 b/s
Count of elements : 315
Compression mode : Lossless
Stream size : 13.9 KiB (0%)
Title : Swedish
Language : Swedish
Default : No
Forced : No

Text #27
ID : 29
Format : ASS
Codec ID : S_TEXT/ASS
Duration : 1 h 19 min
Bit rate : 46 b/s
Count of elements : 319
Compression mode : Lossless
Stream size : 27.1 KiB (0%)
Title : Thai
Language : Thai
Default : No
Forced : No

Text #28
ID : 30
Format : ASS
Codec ID : S_TEXT/ASS
Duration : 1 h 19 min
Bit rate : 24 b/s
Count of elements : 319
Compression mode : Lossless
Stream size : 14.3 KiB (0%)
Title : Turkish
Language : Turkish
Default : No
Forced : No

Text #29
ID : 31
Format : ASS
Codec ID : S_TEXT/ASS
Duration : 1 h 19 min
Bit rate : 29 b/s
Count of elements : 322
Compression mode : Lossless
Stream size : 17.5 KiB (0%)
Title : Vietnamese
Language : Vietnamese
Default : No
Forced : No

[collapse]
Download Link(s)

Download

Direct download files get automatically deleted after a month or so. Posted on : 04/19/2020

[collapse]
Magnet Link

Magnet

Earth.and.Blood.2020.1080p.NF.WEB-DL.DDP5.1.x264-CMRG-1.8 GB

[collapse]

You may also like...

error: nah :p~