Eddie and the Cruisers (1983)

PG | 1h 35min | Drama, Music, Mystery | 23 September 1983 (USA)

A television newswoman picks up the story of a 1960s rock band whose long-lost leader – Eddie Wilson – may still be alive, while searching for the missing tapes of the band’s never-released album.

Watch trailer

Media information

General
Format : Matroska
Format version : Version 4
File size : 1.26 GiB
Duration : 1 h 35 min
Overall bit rate : 1 894 kb/s
Movie name : Eddie.and.the.Cruisers.1983.1080p.10bit.BluRay.2CH.x265.HEVC

Video
ID : 1
Format : HEVC
Format/Info : High Efficiency Video Coding
Format profile : Main [email protected]@Main
Codec ID : V_MPEGH/ISO/HEVC
Duration : 1 h 35 min
Bit rate : 1 725 kb/s
Width : 1 912 pixels
Height : 1 040 pixels
Display aspect ratio : 1.85:1
Frame rate mode : Constant
Frame rate : 23.976 (24000/1001) FPS
Color space : YUV
Chroma subsampling : 4:2:0
Bit depth : 10 bits
Bits/(Pixel*Frame) : 0.036
Stream size : 1.15 GiB (91%)
Default : Yes
Forced : No
Color range : Limited
Color primaries : BT.709
Transfer characteristics : BT.709
Matrix coefficients : BT.709

Audio
ID : 2
Format : AAC LC
Codec ID : A_AAC-2
Duration : 1 h 35 min
Bit rate : 161 kb/s
Channel(s) : 2 channels
Channel layout : L R
Sampling rate : 48.0 kHz
Frame rate : 46.875 FPS (1024 SPF)
Compression mode : Lossy
Delay relative to video : -21 ms
Stream size : 109 MiB (8%)
Language : English
Default : Yes
Forced : No

Text
ID : 3
Format : VobSub
Muxing mode : zlib
Codec ID : S_VOBSUB
Duration : 1 h 34 min
Bit rate : 10.6 kb/s
Count of elements : 1385
Stream size : 7.17 MiB (1%)
Language : English
Default : Yes
Forced : No

[collapse]
Download Link(s)

Download

Direct download files get automatically deleted after a month or so. Posted on : 12/13/2020

[collapse]
Magnet Link

Magnet

Eddie.and.the.Cruisers.1983.1080p.BluRay.x264-SADPANDA-6.56 GB

[collapse]

Media information

General
Format : Matroska
Format version : Version 4
File size : 625 MiB
Duration : 1 h 35 min
Overall bit rate : 915 kb/s
Movie name : Eddie.and.the.Cruisers.1983.720p.10bit.BluRay.2CH.x265.HEVC

Video
ID : 1
Format : HEVC
Format/Info : High Efficiency Video Coding
Format profile : Main [email protected]@Main
Codec ID : V_MPEGH/ISO/HEVC
Duration : 1 h 35 min
Bit rate : 747 kb/s
Width : 1 280 pixels
Height : 720 pixels
Display aspect ratio : 1.85:1
Frame rate mode : Constant
Frame rate : 23.976 (24000/1001) FPS
Color space : YUV
Chroma subsampling : 4:2:0
Bit depth : 10 bits
Bits/(Pixel*Frame) : 0.034
Stream size : 510 MiB (82%)
Default : Yes
Forced : No
Color range : Limited
Color primaries : BT.709
Transfer characteristics : BT.709
Matrix coefficients : BT.709

Audio
ID : 2
Format : AAC LC
Codec ID : A_AAC-2
Duration : 1 h 35 min
Bit rate : 161 kb/s
Channel(s) : 2 channels
Channel layout : L R
Sampling rate : 48.0 kHz
Frame rate : 46.875 FPS (1024 SPF)
Compression mode : Lossy
Delay relative to video : -21 ms
Stream size : 109 MiB (17%)
Language : English
Default : Yes
Forced : No

Text
ID : 3
Format : VobSub
Muxing mode : zlib
Codec ID : S_VOBSUB
Duration : 1 h 34 min
Bit rate : 10.6 kb/s
Count of elements : 1385
Stream size : 7.17 MiB (1%)
Language : English
Default : Yes
Forced : No

[collapse]
Download Link(s)

Download

Direct download files get automatically deleted after a month or so. Posted on : 12/13/2020

[collapse]
Magnet Link

Magnet

Eddie.and.the.Cruisers.1983.1080p.BluRay.x264-SADPANDA-6.56 GB

[collapse]

You may also like...

error: nah :p~