El Camino: A Breaking Bad Movie (2019)

2h 2min | Action, Drama | 11 October 2019 (USA)

After escaping Jack and his gang, Jesse Pinkman goes on the run from the police and tries to escape his own inner turmoil.

Watch trailer

Media information-1080p.10bit.WEBRip.6CH.x265.HEVC

General
Format : Matroska
Format version : Version 4
File size : 1.60 GiB
Duration : 2 h 2 min
Overall bit rate : 1 867 kb/s
Movie name : El.Camino.A.Breaking.Bad.Movie.2019.1080p.10bit.WEBRip.6CH.x265.HEVC
Encoded date : UTC 2019-10-11 18:51:07
Writing application : mkvmerge v38.0.0 (‘The Silent Type’) 32-bit
Writing library : libebml v1.3.9 + libmatroska v1.5.2

Video
ID : 1
Format : HEVC
Format/Info : High Efficiency Video Coding
Format profile : Main [email protected]@Main
Codec ID : V_MPEGH/ISO/HEVC
Duration : 2 h 2 min
Bit rate : 1 671 kb/s
Width : 1 920 pixels
Height : 808 pixels
Display aspect ratio : 2.40:1
Frame rate mode : Constant
Frame rate : 24.000 FPS
Color space : YUV
Chroma subsampling : 4:2:0
Bit depth : 10 bits
Bits/(Pixel*Frame) : 0.045
Stream size : 1.43 GiB (90%)
Default : Yes
Forced : No

Audio
ID : 2
Format : AAC LC SBR
Commercial name : HE-AAC
Format settings : Explicit
Codec ID : A_AAC-2
Duration : 2 h 2 min
Bit rate : 192 kb/s
Channel(s) : 6 channels
Channel layout : C L R Ls Rs LFE
Sampling rate : 48.0 kHz
Frame rate : 23.438 FPS (2048 SPF)
Compression mode : Lossy
Delay relative to video : 23 ms
Stream size : 168 MiB (10%)
Language : English
Default : Yes
Forced : No

Text #1
ID : 3
Format : UTF-8
Codec ID : S_TEXT/UTF8
Codec ID/Info : UTF-8 Plain Text
Duration : 2 h 0 min
Bit rate : 46 b/s
Count of elements : 1344
Stream size : 41.3 KiB (0%)
Language : English
Default : Yes
Forced : No

Text #2
ID : 4
Format : UTF-8
Codec ID : S_TEXT/UTF8
Codec ID/Info : UTF-8 Plain Text
Duration : 2 h 1 min
Bit rate : 51 b/s
Count of elements : 1544
Stream size : 46.2 KiB (0%)
Title : SDH
Language : English
Default : No
Forced : No

Text #3
ID : 5
Format : UTF-8
Codec ID : S_TEXT/UTF8
Codec ID/Info : UTF-8 Plain Text
Duration : 2 h 1 min
Bit rate : 63 b/s
Count of elements : 1210
Stream size : 56.4 KiB (0%)
Language : Arabic
Default : No
Forced : No

Text #4
ID : 6
Format : UTF-8
Codec ID : S_TEXT/UTF8
Codec ID/Info : UTF-8 Plain Text
Duration : 2 h 1 min
Bit rate : 35 b/s
Count of elements : 1168
Stream size : 31.8 KiB (0%)
Language : Czech
Default : No
Forced : No

Text #5
ID : 7
Format : UTF-8
Codec ID : S_TEXT/UTF8
Codec ID/Info : UTF-8 Plain Text
Duration : 2 h 1 min
Bit rate : 36 b/s
Count of elements : 970
Stream size : 33.0 KiB (0%)
Language : Danish
Default : No
Forced : No

Text #6
ID : 8
Format : UTF-8
Codec ID : S_TEXT/UTF8
Codec ID/Info : UTF-8 Plain Text
Duration : 2 h 1 min
Bit rate : 36 b/s
Count of elements : 1139
Stream size : 32.6 KiB (0%)
Language : German
Default : No
Forced : No

Text #7
ID : 9
Format : UTF-8
Codec ID : S_TEXT/UTF8
Codec ID/Info : UTF-8 Plain Text
Duration : 2 h 1 min
Bit rate : 61 b/s
Count of elements : 1211
Stream size : 54.6 KiB (0%)
Language : Greek
Default : No
Forced : No

Text #8
ID : 10
Format : UTF-8
Codec ID : S_TEXT/UTF8
Codec ID/Info : UTF-8 Plain Text
Duration : 2 h 1 min
Bit rate : 36 b/s
Count of elements : 1183
Stream size : 32.9 KiB (0%)
Language : Spanish
Default : No
Forced : No

Text #9
ID : 11
Format : UTF-8
Codec ID : S_TEXT/UTF8
Codec ID/Info : UTF-8 Plain Text
Duration : 2 h 1 min
Bit rate : 35 b/s
Count of elements : 1170
Stream size : 31.6 KiB (0%)
Title : European
Language : Spanish
Default : No
Forced : No

Text #10
ID : 12
Format : UTF-8
Codec ID : S_TEXT/UTF8
Codec ID/Info : UTF-8 Plain Text
Duration : 2 h 1 min
Bit rate : 34 b/s
Count of elements : 978
Stream size : 30.9 KiB (0%)
Language : Finnish
Default : No
Forced : No

Text #11
ID : 13
Format : UTF-8
Codec ID : S_TEXT/UTF8
Codec ID/Info : UTF-8 Plain Text
Duration : 2 h 1 min
Bit rate : 35 b/s
Count of elements : 1182
Stream size : 31.4 KiB (0%)
Language : French
Default : No
Forced : No

Text #12
ID : 14
Format : UTF-8
Codec ID : S_TEXT/UTF8
Codec ID/Info : UTF-8 Plain Text
Duration : 2 h 1 min
Bit rate : 58 b/s
Count of elements : 1213
Stream size : 52.6 KiB (0%)
Language : Hebrew
Default : No
Forced : No

Text #13
ID : 15
Format : UTF-8
Codec ID : S_TEXT/UTF8
Codec ID/Info : UTF-8 Plain Text
Duration : 2 h 1 min
Bit rate : 36 b/s
Count of elements : 1177
Stream size : 32.3 KiB (0%)
Language : Hungarian
Default : No
Forced : No

Text #14
ID : 16
Format : UTF-8
Codec ID : S_TEXT/UTF8
Codec ID/Info : UTF-8 Plain Text
Duration : 2 h 1 min
Bit rate : 34 b/s
Count of elements : 1210
Stream size : 30.6 KiB (0%)
Language : Indonesian
Default : No
Forced : No

Text #15
ID : 17
Format : UTF-8
Codec ID : S_TEXT/UTF8
Codec ID/Info : UTF-8 Plain Text
Duration : 2 h 1 min
Bit rate : 33 b/s
Count of elements : 1160
Stream size : 29.7 KiB (0%)
Language : Italian
Default : No
Forced : No

Text #16
ID : 18
Format : UTF-8
Codec ID : S_TEXT/UTF8
Codec ID/Info : UTF-8 Plain Text
Duration : 2 h 1 min
Bit rate : 36 b/s
Count of elements : 1151
Stream size : 32.2 KiB (0%)
Language : Japanese
Default : No
Forced : No

Text #17
ID : 19
Format : UTF-8
Codec ID : S_TEXT/UTF8
Codec ID/Info : UTF-8 Plain Text
Duration : 2 h 1 min
Bit rate : 43 b/s
Count of elements : 1190
Stream size : 39.3 KiB (0%)
Language : Korean
Default : No
Forced : No

Text #18
ID : 20
Format : UTF-8
Codec ID : S_TEXT/UTF8
Codec ID/Info : UTF-8 Plain Text
Duration : 2 h 1 min
Bit rate : 37 b/s
Count of elements : 911
Stream size : 33.3 KiB (0%)
Language : Norwegian Bokmal
Default : No
Forced : No

Text #19
ID : 21
Format : UTF-8
Codec ID : S_TEXT/UTF8
Codec ID/Info : UTF-8 Plain Text
Duration : 2 h 1 min
Bit rate : 37 b/s
Count of elements : 1011
Stream size : 33.1 KiB (0%)
Language : Dutch
Default : No
Forced : No

Text #20
ID : 22
Format : UTF-8
Codec ID : S_TEXT/UTF8
Codec ID/Info : UTF-8 Plain Text
Duration : 2 h 1 min
Bit rate : 34 b/s
Count of elements : 1199
Stream size : 30.8 KiB (0%)
Language : Polish
Default : No
Forced : No

Text #21
ID : 23
Format : UTF-8
Codec ID : S_TEXT/UTF8
Codec ID/Info : UTF-8 Plain Text
Duration : 2 h 1 min
Bit rate : 38 b/s
Count of elements : 1202
Stream size : 34.3 KiB (0%)
Language : Portuguese
Default : No
Forced : No

Text #22
ID : 24
Format : UTF-8
Codec ID : S_TEXT/UTF8
Codec ID/Info : UTF-8 Plain Text
Duration : 1 h 55 min
Bit rate : 36 b/s
Count of elements : 1205
Stream size : 30.9 KiB (0%)
Title : Brazilian
Language : Portuguese
Default : No
Forced : No

Text #23
ID : 25
Format : UTF-8
Codec ID : S_TEXT/UTF8
Codec ID/Info : UTF-8 Plain Text
Duration : 2 h 1 min
Bit rate : 41 b/s
Count of elements : 1149
Stream size : 37.0 KiB (0%)
Language : Romanian
Default : No
Forced : No

Text #24
ID : 26
Format : UTF-8
Codec ID : S_TEXT/UTF8
Codec ID/Info : UTF-8 Plain Text
Duration : 2 h 1 min
Bit rate : 60 b/s
Count of elements : 1175
Stream size : 54.1 KiB (0%)
Language : Russian
Default : No
Forced : No

Text #25
ID : 27
Format : UTF-8
Codec ID : S_TEXT/UTF8
Codec ID/Info : UTF-8 Plain Text
Duration : 2 h 1 min
Bit rate : 35 b/s
Count of elements : 1081
Stream size : 31.6 KiB (0%)
Language : Swedish
Default : No
Forced : No

Text #26
ID : 28
Format : UTF-8
Codec ID : S_TEXT/UTF8
Codec ID/Info : UTF-8 Plain Text
Duration : 2 h 1 min
Bit rate : 97 b/s
Count of elements : 1213
Stream size : 87.5 KiB (0%)
Language : Thai
Default : No
Forced : No

Text #27
ID : 29
Format : UTF-8
Codec ID : S_TEXT/UTF8
Codec ID/Info : UTF-8 Plain Text
Duration : 2 h 1 min
Bit rate : 36 b/s
Count of elements : 1143
Stream size : 32.2 KiB (0%)
Language : Turkish
Default : No
Forced : No

Text #28
ID : 30
Format : UTF-8
Codec ID : S_TEXT/UTF8
Codec ID/Info : UTF-8 Plain Text
Duration : 2 h 1 min
Bit rate : 48 b/s
Count of elements : 1210
Stream size : 43.4 KiB (0%)
Language : Vietnamese
Default : No
Forced : No

Text #29
ID : 31
Format : UTF-8
Codec ID : S_TEXT/UTF8
Codec ID/Info : UTF-8 Plain Text
Duration : 2 h 1 min
Bit rate : 39 b/s
Count of elements : 1194
Stream size : 35.5 KiB (0%)
Title : Simplified
Language : Chinese
Default : No
Forced : No

Text #30
ID : 32
Format : UTF-8
Codec ID : S_TEXT/UTF8
Codec ID/Info : UTF-8 Plain Text
Duration : 2 h 1 min
Bit rate : 34 b/s
Count of elements : 1215
Stream size : 30.8 KiB (0%)
Title : Traditional
Language : Chinese
Default : No
Forced : No

[collapse]
Download Link(s)

Download

Direct download files get automatically deleted after a month or so. Posted on : 10/11/2019

[collapse]
Magnet Link

Magnet

El.Camino.A.Breaking.Bad.Movie.2019.1080p.NF.WEBRip.DDP5.1.Atmos.x264-NTG-3.77 GB

[collapse]

Media information-720p.10bit.WEBRip.6CH.x265.HEVC

General
Format : Matroska
Format version : Version 4
File size : 832 MiB
Duration : 2 h 2 min
Overall bit rate : 948 kb/s
Movie name : El.Camino.A.Breaking.Bad.Movie.2019.720p.10bit.WEBRip.6CH.x265.HEVC
Encoded date : UTC 2019-10-11 14:09:43
Writing application : mkvmerge v38.0.0 (‘The Silent Type’) 32-bit
Writing library : libebml v1.3.9 + libmatroska v1.5.2

Video
ID : 1
Format : HEVC
Format/Info : High Efficiency Video Coding
Format profile : Main [email protected]@Main
Codec ID : V_MPEGH/ISO/HEVC
Duration : 2 h 2 min
Bit rate : 753 kb/s
Width : 1 280 pixels
Height : 536 pixels
Display aspect ratio : 2.40:1
Frame rate mode : Constant
Frame rate : 24.000 FPS
Color space : YUV
Chroma subsampling : 4:2:0
Bit depth : 10 bits
Bits/(Pixel*Frame) : 0.046
Stream size : 661 MiB (79%)
Default : Yes
Forced : No

Audio
ID : 2
Format : AAC LC SBR
Commercial name : HE-AAC
Format settings : Explicit
Codec ID : A_AAC-2
Duration : 2 h 2 min
Bit rate : 192 kb/s
Channel(s) : 6 channels
Channel layout : C L R Ls Rs LFE
Sampling rate : 48.0 kHz
Frame rate : 23.438 FPS (2048 SPF)
Compression mode : Lossy
Delay relative to video : 23 ms
Stream size : 168 MiB (20%)
Language : English
Default : Yes
Forced : No

Text #1
ID : 3
Format : UTF-8
Codec ID : S_TEXT/UTF8
Codec ID/Info : UTF-8 Plain Text
Duration : 2 h 0 min
Bit rate : 46 b/s
Count of elements : 1344
Stream size : 41.3 KiB (0%)
Language : English
Default : Yes
Forced : No

Text #2
ID : 4
Format : UTF-8
Codec ID : S_TEXT/UTF8
Codec ID/Info : UTF-8 Plain Text
Duration : 2 h 1 min
Bit rate : 51 b/s
Count of elements : 1544
Stream size : 46.2 KiB (0%)
Title : SDH
Language : English
Default : No
Forced : No

Text #3
ID : 5
Format : UTF-8
Codec ID : S_TEXT/UTF8
Codec ID/Info : UTF-8 Plain Text
Duration : 2 h 1 min
Bit rate : 63 b/s
Count of elements : 1210
Stream size : 56.4 KiB (0%)
Language : Arabic
Default : No
Forced : No

Text #4
ID : 6
Format : UTF-8
Codec ID : S_TEXT/UTF8
Codec ID/Info : UTF-8 Plain Text
Duration : 2 h 1 min
Bit rate : 35 b/s
Count of elements : 1168
Stream size : 31.8 KiB (0%)
Language : Czech
Default : No
Forced : No

Text #5
ID : 7
Format : UTF-8
Codec ID : S_TEXT/UTF8
Codec ID/Info : UTF-8 Plain Text
Duration : 2 h 1 min
Bit rate : 36 b/s
Count of elements : 970
Stream size : 33.0 KiB (0%)
Language : Danish
Default : No
Forced : No

Text #6
ID : 8
Format : UTF-8
Codec ID : S_TEXT/UTF8
Codec ID/Info : UTF-8 Plain Text
Duration : 2 h 1 min
Bit rate : 36 b/s
Count of elements : 1139
Stream size : 32.6 KiB (0%)
Language : German
Default : No
Forced : No

Text #7
ID : 9
Format : UTF-8
Codec ID : S_TEXT/UTF8
Codec ID/Info : UTF-8 Plain Text
Duration : 2 h 1 min
Bit rate : 61 b/s
Count of elements : 1211
Stream size : 54.6 KiB (0%)
Language : Greek
Default : No
Forced : No

Text #8
ID : 10
Format : UTF-8
Codec ID : S_TEXT/UTF8
Codec ID/Info : UTF-8 Plain Text
Duration : 2 h 1 min
Bit rate : 36 b/s
Count of elements : 1183
Stream size : 32.9 KiB (0%)
Language : Spanish
Default : No
Forced : No

Text #9
ID : 11
Format : UTF-8
Codec ID : S_TEXT/UTF8
Codec ID/Info : UTF-8 Plain Text
Duration : 2 h 1 min
Bit rate : 35 b/s
Count of elements : 1170
Stream size : 31.6 KiB (0%)
Title : European
Language : Spanish
Default : No
Forced : No

Text #10
ID : 12
Format : UTF-8
Codec ID : S_TEXT/UTF8
Codec ID/Info : UTF-8 Plain Text
Duration : 2 h 1 min
Bit rate : 34 b/s
Count of elements : 978
Stream size : 30.9 KiB (0%)
Language : Finnish
Default : No
Forced : No

Text #11
ID : 13
Format : UTF-8
Codec ID : S_TEXT/UTF8
Codec ID/Info : UTF-8 Plain Text
Duration : 2 h 1 min
Bit rate : 35 b/s
Count of elements : 1182
Stream size : 31.4 KiB (0%)
Language : French
Default : No
Forced : No

Text #12
ID : 14
Format : UTF-8
Codec ID : S_TEXT/UTF8
Codec ID/Info : UTF-8 Plain Text
Duration : 2 h 1 min
Bit rate : 58 b/s
Count of elements : 1213
Stream size : 52.6 KiB (0%)
Language : Hebrew
Default : No
Forced : No

Text #13
ID : 15
Format : UTF-8
Codec ID : S_TEXT/UTF8
Codec ID/Info : UTF-8 Plain Text
Duration : 2 h 1 min
Bit rate : 36 b/s
Count of elements : 1177
Stream size : 32.3 KiB (0%)
Language : Hungarian
Default : No
Forced : No

Text #14
ID : 16
Format : UTF-8
Codec ID : S_TEXT/UTF8
Codec ID/Info : UTF-8 Plain Text
Duration : 2 h 1 min
Bit rate : 34 b/s
Count of elements : 1210
Stream size : 30.6 KiB (0%)
Language : Indonesian
Default : No
Forced : No

Text #15
ID : 17
Format : UTF-8
Codec ID : S_TEXT/UTF8
Codec ID/Info : UTF-8 Plain Text
Duration : 2 h 1 min
Bit rate : 33 b/s
Count of elements : 1160
Stream size : 29.7 KiB (0%)
Language : Italian
Default : No
Forced : No

Text #16
ID : 18
Format : UTF-8
Codec ID : S_TEXT/UTF8
Codec ID/Info : UTF-8 Plain Text
Duration : 2 h 1 min
Bit rate : 36 b/s
Count of elements : 1151
Stream size : 32.2 KiB (0%)
Language : Japanese
Default : No
Forced : No

Text #17
ID : 19
Format : UTF-8
Codec ID : S_TEXT/UTF8
Codec ID/Info : UTF-8 Plain Text
Duration : 2 h 1 min
Bit rate : 43 b/s
Count of elements : 1190
Stream size : 39.3 KiB (0%)
Language : Korean
Default : No
Forced : No

Text #18
ID : 20
Format : UTF-8
Codec ID : S_TEXT/UTF8
Codec ID/Info : UTF-8 Plain Text
Duration : 2 h 1 min
Bit rate : 37 b/s
Count of elements : 911
Stream size : 33.3 KiB (0%)
Language : Norwegian Bokmal
Default : No
Forced : No

Text #19
ID : 21
Format : UTF-8
Codec ID : S_TEXT/UTF8
Codec ID/Info : UTF-8 Plain Text
Duration : 2 h 1 min
Bit rate : 37 b/s
Count of elements : 1011
Stream size : 33.1 KiB (0%)
Language : Dutch
Default : No
Forced : No

Text #20
ID : 22
Format : UTF-8
Codec ID : S_TEXT/UTF8
Codec ID/Info : UTF-8 Plain Text
Duration : 2 h 1 min
Bit rate : 34 b/s
Count of elements : 1199
Stream size : 30.8 KiB (0%)
Language : Polish
Default : No
Forced : No

Text #21
ID : 23
Format : UTF-8
Codec ID : S_TEXT/UTF8
Codec ID/Info : UTF-8 Plain Text
Duration : 2 h 1 min
Bit rate : 38 b/s
Count of elements : 1202
Stream size : 34.3 KiB (0%)
Language : Portuguese
Default : No
Forced : No

Text #22
ID : 24
Format : UTF-8
Codec ID : S_TEXT/UTF8
Codec ID/Info : UTF-8 Plain Text
Duration : 1 h 55 min
Bit rate : 36 b/s
Count of elements : 1205
Stream size : 30.9 KiB (0%)
Title : Brazilian
Language : Portuguese
Default : No
Forced : No

Text #23
ID : 25
Format : UTF-8
Codec ID : S_TEXT/UTF8
Codec ID/Info : UTF-8 Plain Text
Duration : 2 h 1 min
Bit rate : 41 b/s
Count of elements : 1149
Stream size : 37.0 KiB (0%)
Language : Romanian
Default : No
Forced : No

Text #24
ID : 26
Format : UTF-8
Codec ID : S_TEXT/UTF8
Codec ID/Info : UTF-8 Plain Text
Duration : 2 h 1 min
Bit rate : 60 b/s
Count of elements : 1175
Stream size : 54.1 KiB (0%)
Language : Russian
Default : No
Forced : No

Text #25
ID : 27
Format : UTF-8
Codec ID : S_TEXT/UTF8
Codec ID/Info : UTF-8 Plain Text
Duration : 2 h 1 min
Bit rate : 35 b/s
Count of elements : 1081
Stream size : 31.6 KiB (0%)
Language : Swedish
Default : No
Forced : No

Text #26
ID : 28
Format : UTF-8
Codec ID : S_TEXT/UTF8
Codec ID/Info : UTF-8 Plain Text
Duration : 2 h 1 min
Bit rate : 97 b/s
Count of elements : 1213
Stream size : 87.5 KiB (0%)
Language : Thai
Default : No
Forced : No

Text #27
ID : 29
Format : UTF-8
Codec ID : S_TEXT/UTF8
Codec ID/Info : UTF-8 Plain Text
Duration : 2 h 1 min
Bit rate : 36 b/s
Count of elements : 1143
Stream size : 32.2 KiB (0%)
Language : Turkish
Default : No
Forced : No

Text #28
ID : 30
Format : UTF-8
Codec ID : S_TEXT/UTF8
Codec ID/Info : UTF-8 Plain Text
Duration : 2 h 1 min
Bit rate : 48 b/s
Count of elements : 1210
Stream size : 43.4 KiB (0%)
Language : Vietnamese
Default : No
Forced : No

Text #29
ID : 31
Format : UTF-8
Codec ID : S_TEXT/UTF8
Codec ID/Info : UTF-8 Plain Text
Duration : 2 h 1 min
Bit rate : 39 b/s
Count of elements : 1194
Stream size : 35.5 KiB (0%)
Title : Simplified
Language : Chinese
Default : No
Forced : No

Text #30
ID : 32
Format : UTF-8
Codec ID : S_TEXT/UTF8
Codec ID/Info : UTF-8 Plain Text
Duration : 2 h 1 min
Bit rate : 34 b/s
Count of elements : 1215
Stream size : 30.8 KiB (0%)
Title : Traditional
Language : Chinese
Default : No
Forced : No

[collapse]
Download Link(s)

Download

Direct download files get automatically deleted after a month or so. Posted on : 10/11/2019

[collapse]
Magnet Link

Magnet

El.Camino.A.Breaking.Bad.Movie.2019.1080p.NF.WEBRip.DDP5.1.Atmos.x264-NTG-3.77 GB

[collapse]

Media information

General
Format : Matroska
Format version : Version 4
File size : 1.06 GiB
Duration : 2 h 2 min
Overall bit rate : 1 234 kb/s
Movie name : El.Camino.A.Breaking.Bad.Movie.2019.720p.WEB-DL.2CH.x264.AVC
Encoded date : UTC 2019-10-11 12:55:15
Writing application : mkvmerge v38.0.0 (‘The Silent Type’) 32-bit
Writing library : libebml v1.3.9 + libmatroska v1.5.2

Video
ID : 1
Format : AVC
Format/Info : Advanced Video Codec
Format profile : [email protected]
Format settings : CABAC / 4 Ref Frames
Format settings, CABAC : Yes
Format settings, Reference frames : 4 frames
Codec ID : V_MPEG4/ISO/AVC
Duration : 2 h 2 min
Bit rate : 1 100 kb/s
Width : 1 280 pixels
Height : 536 pixels
Display aspect ratio : 2.40:1
Frame rate mode : Constant
Frame rate : 23.976 (24000/1001) FPS
Color space : YUV
Chroma subsampling : 4:2:0
Bit depth : 8 bits
Scan type : Progressive
Bits/(Pixel*Frame) : 0.067
Stream size : 966 MiB (89%)
Default : Yes
Forced : No
Color range : Limited
Color primaries : BT.709
Transfer characteristics : BT.709
Matrix coefficients : BT.709

Audio
ID : 2
Format : AAC LC
Codec ID : A_AAC-2
Duration : 2 h 2 min
Bit rate : 128 kb/s
Channel(s) : 2 channels
Channel layout : L R
Sampling rate : 48.0 kHz
Frame rate : 46.875 FPS (1024 SPF)
Compression mode : Lossy
Delay relative to video : -21 ms
Stream size : 112 MiB (10%)
Language : English
Default : Yes
Forced : No

Text #1
ID : 3
Format : ASS
Codec ID : S_TEXT/ASS
Duration : 2 h 0 min
Bit rate : 79 b/s
Count of elements : 1344
Compression mode : Lossless
Stream size : 70.7 KiB (0%)
Language : English
Default : Yes
Forced : No

Text #2
ID : 4
Format : ASS
Codec ID : S_TEXT/ASS
Duration : 2 h 1 min
Bit rate : 90 b/s
Count of elements : 1544
Compression mode : Lossless
Stream size : 80.7 KiB (0%)
Language : English
Default : No
Forced : No

Text #3
ID : 5
Format : ASS
Codec ID : S_TEXT/ASS
Duration : 2 h 1 min
Bit rate : 63 b/s
Count of elements : 1170
Compression mode : Lossless
Stream size : 57.1 KiB (0%)
Language : Spanish
Default : No
Forced : No

Text #4
ID : 6
Format : ASS
Codec ID : S_TEXT/ASS
Duration : 2 h 1 min
Bit rate : 65 b/s
Count of elements : 1183
Compression mode : Lossless
Stream size : 58.7 KiB (0%)
Language : Spanish
Default : No
Forced : No

Text #5
ID : 7
Format : ASS
Codec ID : S_TEXT/ASS
Duration : 2 h 1 min
Bit rate : 64 b/s
Count of elements : 1182
Compression mode : Lossless
Stream size : 57.2 KiB (0%)
Language : French
Default : No
Forced : No

Text #6
ID : 8
Format : ASS
Codec ID : S_TEXT/ASS
Duration : 2 h 1 min
Bit rate : 64 b/s
Count of elements : 1139
Compression mode : Lossless
Stream size : 57.4 KiB (0%)
Language : German
Default : No
Forced : No

Text #7
ID : 9
Format : ASS
Codec ID : S_TEXT/ASS
Duration : 2 h 1 min
Bit rate : 61 b/s
Count of elements : 1160
Compression mode : Lossless
Stream size : 55.0 KiB (0%)
Language : Italian
Default : No
Forced : No

Text #8
ID : 10
Format : ASS
Codec ID : S_TEXT/ASS
Duration : 2 h 1 min
Bit rate : 67 b/s
Count of elements : 1202
Compression mode : Lossless
Stream size : 60.6 KiB (0%)
Language : Portuguese
Default : No
Forced : No

Text #9
ID : 11
Format : ASS
Codec ID : S_TEXT/ASS
Duration : 1 h 55 min
Bit rate : 67 b/s
Count of elements : 1205
Compression mode : Lossless
Stream size : 57.2 KiB (0%)
Language : Portuguese
Default : No
Forced : No

Text #10
ID : 12
Format : ASS
Codec ID : S_TEXT/ASS
Duration : 2 h 1 min
Bit rate : 63 b/s
Count of elements : 1199
Compression mode : Lossless
Stream size : 57.0 KiB (0%)
Language : Polish
Default : No
Forced : No

Text #11
ID : 13
Format : ASS
Codec ID : S_TEXT/ASS
Duration : 2 h 1 min
Bit rate : 63 b/s
Count of elements : 1143
Compression mode : Lossless
Stream size : 57.1 KiB (0%)
Language : Turkish
Default : No
Forced : No

Text #12
ID : 14
Format : ASS
Codec ID : S_TEXT/ASS
Duration : 2 h 1 min
Bit rate : 61 b/s
Count of elements : 1081
Compression mode : Lossless
Stream size : 55.1 KiB (0%)
Language : Swedish
Default : No
Forced : No

Text #13
ID : 15
Format : ASS
Codec ID : S_TEXT/ASS
Duration : 2 h 1 min
Bit rate : 60 b/s
Count of elements : 970
Compression mode : Lossless
Stream size : 54.1 KiB (0%)
Language : Danish
Default : No
Forced : No

Text #14
ID : 16
Format : ASS
Codec ID : S_TEXT/ASS
Duration : 2 h 1 min
Bit rate : 58 b/s
Count of elements : 978
Compression mode : Lossless
Stream size : 52.1 KiB (0%)
Language : Finnish
Default : No
Forced : No

Text #15
ID : 17
Format : ASS
Codec ID : S_TEXT/ASS
Duration : 2 h 1 min
Bit rate : 61 b/s
Count of elements : 1011
Compression mode : Lossless
Stream size : 54.7 KiB (0%)
Language : Dutch
Default : No
Forced : No

Text #16
ID : 18
Format : ASS
Codec ID : S_TEXT/ASS
Duration : 2 h 1 min
Bit rate : 59 b/s
Count of elements : 911
Compression mode : Lossless
Stream size : 53.1 KiB (0%)
Language : Norwegian
Default : No
Forced : No

Text #17
ID : 19
Format : ASS
Codec ID : S_TEXT/ASS
Duration : 2 h 1 min
Bit rate : 89 b/s
Count of elements : 1175
Compression mode : Lossless
Stream size : 79.8 KiB (0%)
Language : Russian
Default : No
Forced : No

Text #18
ID : 20
Format : ASS
Codec ID : S_TEXT/ASS
Duration : 2 h 1 min
Bit rate : 64 b/s
Count of elements : 1177
Compression mode : Lossless
Stream size : 58.0 KiB (0%)
Language : Hungarian
Default : No
Forced : No

Text #19
ID : 21
Format : ASS
Codec ID : S_TEXT/ASS
Duration : 2 h 1 min
Bit rate : 90 b/s
Count of elements : 1211
Compression mode : Lossless
Stream size : 81.0 KiB (0%)
Language : Greek
Default : No
Forced : No

Text #20
ID : 22
Format : ASS
Codec ID : S_TEXT/ASS
Duration : 2 h 1 min
Bit rate : 88 b/s
Count of elements : 1213
Compression mode : Lossless
Stream size : 78.8 KiB (0%)
Language : Hebrew
Default : No
Forced : No

Text #21
ID : 23
Format : ASS
Codec ID : S_TEXT/ASS
Duration : 2 h 1 min
Bit rate : 92 b/s
Count of elements : 1210
Compression mode : Lossless
Stream size : 82.5 KiB (0%)
Language : Arabic
Default : No
Forced : No

Text #22
ID : 24
Format : ASS
Codec ID : S_TEXT/ASS
Duration : 2 h 1 min
Bit rate : 69 b/s
Count of elements : 1149
Compression mode : Lossless
Stream size : 62.1 KiB (0%)
Language : Romanian
Default : No
Forced : No

Text #23
ID : 25
Format : ASS
Codec ID : S_TEXT/ASS
Duration : 2 h 1 min
Bit rate : 64 b/s
Count of elements : 1168
Compression mode : Lossless
Stream size : 57.2 KiB (0%)
Language : Czech
Default : No
Forced : No

Text #24
ID : 26
Format : ASS
Codec ID : S_TEXT/ASS
Duration : 2 h 1 min
Bit rate : 63 b/s
Count of elements : 1210
Compression mode : Lossless
Stream size : 57.1 KiB (0%)
Language : Indonesian
Default : No
Forced : No

Text #25
ID : 27
Format : ASS
Codec ID : S_TEXT/ASS
Duration : 2 h 1 min
Bit rate : 78 b/s
Count of elements : 1210
Compression mode : Lossless
Stream size : 69.9 KiB (0%)
Language : Vietnamese
Default : No
Forced : No

Text #26
ID : 28
Format : ASS
Codec ID : S_TEXT/ASS
Duration : 2 h 1 min
Bit rate : 127 b/s
Count of elements : 1213
Compression mode : Lossless
Stream size : 114 KiB (0%)
Language : Thai
Default : No
Forced : No

Text #27
ID : 29
Format : ASS
Codec ID : S_TEXT/ASS
Duration : 2 h 1 min
Bit rate : 72 b/s
Count of elements : 1190
Compression mode : Lossless
Stream size : 65.0 KiB (0%)
Language : Korean
Default : No
Forced : No

Text #28
ID : 30
Format : ASS
Codec ID : S_TEXT/ASS
Duration : 2 h 1 min
Bit rate : 68 b/s
Count of elements : 1194
Compression mode : Lossless
Stream size : 61.3 KiB (0%)
Language : Chinese
Default : No
Forced : No

Text #29
ID : 31
Format : ASS
Codec ID : S_TEXT/ASS
Duration : 2 h 1 min
Bit rate : 63 b/s
Count of elements : 1215
Compression mode : Lossless
Stream size : 57.1 KiB (0%)
Language : Chinese
Default : No
Forced : No

Text #30
ID : 32
Format : ASS
Codec ID : S_TEXT/ASS
Duration : 2 h 1 min
Bit rate : 63 b/s
Count of elements : 1155
Compression mode : Lossless
Stream size : 57.1 KiB (0%)
Language : Japanese
Default : No
Forced : No

[collapse]
Download Link(s)

Download

Direct download files get automatically deleted after a month or so. Posted on : 10/11/2019

[collapse]
Magnet Link

Magnet

El.Camino.A.Breaking.Bad.Movie.2019.iNTERNAL.1080p.WEB.X264-AMRAP-3.77 GB

[collapse]

Release Notes

Internal Release

[collapse]

You may also like...

error: nah :p~