Eli (2019)

R | 1h 38min | Horror | 18 October 2019 (USA)

A boy receiving treatment for his auto-immune disorder discovers that the house he’s living in isn’t as safe as he thought.

Watch trailer

Media information

General
Format : Matroska
Format version : Version 4
File size : 674 MiB
Duration : 1 h 38 min
Overall bit rate : 961 kb/s
Movie name : Eli.2019.720p.10bit.WEBRip.6CH.x265.HEVC
Encoded date : UTC 2019-10-19 08:36:46
Writing application : mkvmerge v38.0.0 (‘The Silent Type’) 32-bit
Writing library : libebml v1.3.9 + libmatroska v1.5.2

Video
ID : 1
Format : HEVC
Format/Info : High Efficiency Video Coding
Format profile : Main [email protected]@Main
Codec ID : V_MPEGH/ISO/HEVC
Duration : 1 h 38 min
Bit rate : 750 kb/s
Width : 1 280 pixels
Height : 536 pixels
Display aspect ratio : 2.40:1
Frame rate mode : Constant
Frame rate : 23.976 (24000/1001) FPS
Color space : YUV
Chroma subsampling : 4:2:0
Bit depth : 10 bits
Bits/(Pixel*Frame) : 0.046
Stream size : 526 MiB (78%)
Default : Yes
Forced : No

Audio
ID : 2
Format : AAC LC SBR
Commercial name : HE-AAC
Format settings : Explicit
Codec ID : A_AAC-2
Duration : 1 h 38 min
Bit rate : 206 kb/s
Channel(s) : 6 channels
Channel layout : C L R Ls Rs LFE
Sampling rate : 48.0 kHz
Frame rate : 23.438 FPS (2048 SPF)
Compression mode : Lossy
Delay relative to video : 23 ms
Stream size : 144 MiB (21%)
Language : English
Default : Yes
Forced : No

Text #1
ID : 3
Format : UTF-8
Codec ID : S_TEXT/UTF8
Codec ID/Info : UTF-8 Plain Text
Duration : 1 h 28 min
Bit rate : 38 b/s
Count of elements : 902
Stream size : 25.0 KiB (0%)
Language : English
Default : Yes
Forced : No

Text #2
ID : 4
Format : UTF-8
Codec ID : S_TEXT/UTF8
Codec ID/Info : UTF-8 Plain Text
Duration : 1 h 28 min
Bit rate : 43 b/s
Count of elements : 1055
Stream size : 28.1 KiB (0%)
Title : SDH
Language : English
Default : No
Forced : No

Text #3
ID : 5
Format : UTF-8
Codec ID : S_TEXT/UTF8
Codec ID/Info : UTF-8 Plain Text
Duration : 1 h 35 min
Bit rate : 58 b/s
Count of elements : 971
Stream size : 41.0 KiB (0%)
Language : Arabic
Default : No
Forced : No

Text #4
ID : 6
Format : UTF-8
Codec ID : S_TEXT/UTF8
Codec ID/Info : UTF-8 Plain Text
Duration : 1 h 35 min
Bit rate : 31 b/s
Count of elements : 935
Stream size : 22.0 KiB (0%)
Language : Czech
Default : No
Forced : No

Text #5
ID : 7
Format : UTF-8
Codec ID : S_TEXT/UTF8
Codec ID/Info : UTF-8 Plain Text
Duration : 1 h 35 min
Bit rate : 34 b/s
Count of elements : 994
Stream size : 23.7 KiB (0%)
Language : Danish
Default : No
Forced : No

Text #6
ID : 8
Format : UTF-8
Codec ID : S_TEXT/UTF8
Codec ID/Info : UTF-8 Plain Text
Duration : 1 h 35 min
Bit rate : 34 b/s
Count of elements : 985
Stream size : 23.9 KiB (0%)
Language : German
Default : No
Forced : No

Text #7
ID : 9
Format : UTF-8
Codec ID : S_TEXT/UTF8
Codec ID/Info : UTF-8 Plain Text
Duration : 1 h 35 min
Bit rate : 56 b/s
Count of elements : 985
Stream size : 39.0 KiB (0%)
Language : Greek
Default : No
Forced : No

Text #8
ID : 10
Format : UTF-8
Codec ID : S_TEXT/UTF8
Codec ID/Info : UTF-8 Plain Text
Duration : 1 h 35 min
Bit rate : 33 b/s
Count of elements : 995
Stream size : 23.5 KiB (0%)
Language : Spanish
Default : No
Forced : No

Text #9
ID : 11
Format : UTF-8
Codec ID : S_TEXT/UTF8
Codec ID/Info : UTF-8 Plain Text
Duration : 1 h 35 min
Bit rate : 30 b/s
Count of elements : 996
Stream size : 21.0 KiB (0%)
Title : European
Language : Spanish
Default : No
Forced : No

Text #10
ID : 12
Format : UTF-8
Codec ID : S_TEXT/UTF8
Codec ID/Info : UTF-8 Plain Text
Duration : 1 h 35 min
Bit rate : 32 b/s
Count of elements : 1001
Stream size : 22.3 KiB (0%)
Language : Finnish
Default : No
Forced : No

Text #11
ID : 13
Format : UTF-8
Codec ID : S_TEXT/UTF8
Codec ID/Info : UTF-8 Plain Text
Duration : 1 h 35 min
Bit rate : 34 b/s
Count of elements : 923
Stream size : 24.3 KiB (0%)
Language : French
Default : No
Forced : No

Text #12
ID : 14
Format : UTF-8
Codec ID : S_TEXT/UTF8
Codec ID/Info : UTF-8 Plain Text
Duration : 1 h 35 min
Bit rate : 58 b/s
Count of elements : 942
Stream size : 40.7 KiB (0%)
Language : Hebrew
Default : No
Forced : No

Text #13
ID : 15
Format : UTF-8
Codec ID : S_TEXT/UTF8
Codec ID/Info : UTF-8 Plain Text
Duration : 1 h 35 min
Bit rate : 96 b/s
Count of elements : 999
Stream size : 67.5 KiB (0%)
Language : Hindi
Default : No
Forced : No

Text #14
ID : 16
Format : UTF-8
Codec ID : S_TEXT/UTF8
Codec ID/Info : UTF-8 Plain Text
Duration : 1 h 35 min
Bit rate : 34 b/s
Count of elements : 1001
Stream size : 23.8 KiB (0%)
Language : Hungarian
Default : No
Forced : No

Text #15
ID : 17
Format : UTF-8
Codec ID : S_TEXT/UTF8
Codec ID/Info : UTF-8 Plain Text
Duration : 1 h 35 min
Bit rate : 33 b/s
Count of elements : 936
Stream size : 23.4 KiB (0%)
Language : Indonesian
Default : No
Forced : No

Text #16
ID : 18
Format : UTF-8
Codec ID : S_TEXT/UTF8
Codec ID/Info : UTF-8 Plain Text
Duration : 1 h 35 min
Bit rate : 33 b/s
Count of elements : 998
Stream size : 23.3 KiB (0%)
Language : Italian
Default : No
Forced : No

Text #17
ID : 19
Format : UTF-8
Codec ID : S_TEXT/UTF8
Codec ID/Info : UTF-8 Plain Text
Duration : 1 h 35 min
Bit rate : 31 b/s
Count of elements : 949
Stream size : 22.1 KiB (0%)
Language : Japanese
Default : No
Forced : No

Text #18
ID : 20
Format : UTF-8
Codec ID : S_TEXT/UTF8
Codec ID/Info : UTF-8 Plain Text
Duration : 1 h 35 min
Bit rate : 45 b/s
Count of elements : 1008
Stream size : 31.6 KiB (0%)
Language : Korean
Default : No
Forced : No

Text #19
ID : 21
Format : UTF-8
Codec ID : S_TEXT/UTF8
Codec ID/Info : UTF-8 Plain Text
Duration : 1 h 35 min
Bit rate : 33 b/s
Count of elements : 914
Stream size : 23.2 KiB (0%)
Language : Norwegian Bokmal
Default : No
Forced : No

Text #20
ID : 22
Format : UTF-8
Codec ID : S_TEXT/UTF8
Codec ID/Info : UTF-8 Plain Text
Duration : 1 h 28 min
Bit rate : 33 b/s
Count of elements : 805
Stream size : 21.7 KiB (0%)
Language : Dutch
Default : No
Forced : No

Text #21
ID : 23
Format : UTF-8
Codec ID : S_TEXT/UTF8
Codec ID/Info : UTF-8 Plain Text
Duration : 1 h 35 min
Bit rate : 30 b/s
Count of elements : 988
Stream size : 21.4 KiB (0%)
Language : Polish
Default : No
Forced : No

Text #22
ID : 24
Format : UTF-8
Codec ID : S_TEXT/UTF8
Codec ID/Info : UTF-8 Plain Text
Duration : 1 h 35 min
Bit rate : 31 b/s
Count of elements : 988
Stream size : 21.6 KiB (0%)
Language : Portuguese
Default : No
Forced : No

Text #23
ID : 25
Format : UTF-8
Codec ID : S_TEXT/UTF8
Codec ID/Info : UTF-8 Plain Text
Duration : 1 h 35 min
Bit rate : 36 b/s
Count of elements : 997
Stream size : 25.1 KiB (0%)
Title : Brazilian
Language : Portuguese
Default : No
Forced : No

Text #24
ID : 26
Format : UTF-8
Codec ID : S_TEXT/UTF8
Codec ID/Info : UTF-8 Plain Text
Duration : 1 h 35 min
Bit rate : 37 b/s
Count of elements : 908
Stream size : 26.1 KiB (0%)
Language : Romanian
Default : No
Forced : No

Text #25
ID : 27
Format : UTF-8
Codec ID : S_TEXT/UTF8
Codec ID/Info : UTF-8 Plain Text
Duration : 1 h 35 min
Bit rate : 52 b/s
Count of elements : 1004
Stream size : 36.5 KiB (0%)
Language : Russian
Default : No
Forced : No

Text #26
ID : 28
Format : UTF-8
Codec ID : S_TEXT/UTF8
Codec ID/Info : UTF-8 Plain Text
Duration : 1 h 35 min
Bit rate : 31 b/s
Count of elements : 990
Stream size : 21.9 KiB (0%)
Language : Swedish
Default : No
Forced : No

Text #27
ID : 29
Format : UTF-8
Codec ID : S_TEXT/UTF8
Codec ID/Info : UTF-8 Plain Text
Duration : 1 h 35 min
Bit rate : 90 b/s
Count of elements : 1001
Stream size : 63.2 KiB (0%)
Language : Thai
Default : No
Forced : No

Text #28
ID : 30
Format : UTF-8
Codec ID : S_TEXT/UTF8
Codec ID/Info : UTF-8 Plain Text
Duration : 1 h 35 min
Bit rate : 33 b/s
Count of elements : 994
Stream size : 23.3 KiB (0%)
Language : Turkish
Default : No
Forced : No

Text #29
ID : 31
Format : UTF-8
Codec ID : S_TEXT/UTF8
Codec ID/Info : UTF-8 Plain Text
Duration : 1 h 35 min
Bit rate : 45 b/s
Count of elements : 1001
Stream size : 31.6 KiB (0%)
Language : Vietnamese
Default : No
Forced : No

Text #30
ID : 32
Format : UTF-8
Codec ID : S_TEXT/UTF8
Codec ID/Info : UTF-8 Plain Text
Duration : 1 h 35 min
Bit rate : 36 b/s
Count of elements : 997
Stream size : 25.1 KiB (0%)
Title : Simplified
Language : Chinese
Default : No
Forced : No

Text #31
ID : 33
Format : UTF-8
Codec ID : S_TEXT/UTF8
Codec ID/Info : UTF-8 Plain Text
Duration : 1 h 35 min
Bit rate : 36 b/s
Count of elements : 1003
Stream size : 25.1 KiB (0%)
Title : Traditional
Language : Chinese
Default : No
Forced : No

[collapse]
Download Link(s)

Download

Direct download files get automatically deleted after a month or so. Posted on : 10/19/2019

[collapse]
Magnet Link

Magnet

Eli.2019.1080p.NF.WEBRip.DDP5.1.x264-NTG-4.52 GB

[collapse]

Media information

General
Format : Matroska
Format version : Version 4
File size : 850 MiB
Duration : 1 h 38 min
Overall bit rate : 1 211 kb/s
Movie name : Eli.2019.720p.WEB-DL.2CH.x264.AVC
Encoded date : UTC 2019-10-18 18:45:06
Writing application : mkvmerge v38.0.0 (‘The Silent Type’) 32-bit
Writing library : libebml v1.3.9 + libmatroska v1.5.2

Video
ID : 1
Format : AVC
Format/Info : Advanced Video Codec
Format profile : [email protected]
Format settings : CABAC / 4 Ref Frames
Format settings, CABAC : Yes
Format settings, Reference frames : 4 frames
Codec ID : V_MPEG4/ISO/AVC
Duration : 1 h 38 min
Bit rate : 1 100 kb/s
Width : 1 280 pixels
Height : 544 pixels
Display aspect ratio : 2.35:1
Frame rate mode : Constant
Frame rate : 23.976 (24000/1001) FPS
Color space : YUV
Chroma subsampling : 4:2:0
Bit depth : 8 bits
Scan type : Progressive
Bits/(Pixel*Frame) : 0.066
Stream size : 756 MiB (89%)
Default : Yes
Forced : No
Color range : Limited
Color primaries : BT.709
Transfer characteristics : BT.709
Matrix coefficients : BT.709

Audio
ID : 2
Format : AAC LC
Codec ID : A_AAC-2
Duration : 1 h 38 min
Bit rate : 127 kb/s
Channel(s) : 2 channels
Channel layout : L R
Sampling rate : 48.0 kHz
Frame rate : 46.875 FPS (1024 SPF)
Compression mode : Lossy
Delay relative to video : -21 ms
Stream size : 89.4 MiB (11%)
Language : English
Default : Yes
Forced : No

Text #1
ID : 3
Format : ASS
Codec ID : S_TEXT/ASS
Duration : 1 h 28 min
Bit rate : 68 b/s
Count of elements : 902
Compression mode : Lossless
Stream size : 44.3 KiB (0%)
Language : English
Default : Yes
Forced : No

Text #2
ID : 4
Format : ASS
Codec ID : S_TEXT/ASS
Duration : 1 h 28 min
Bit rate : 77 b/s
Count of elements : 1055
Compression mode : Lossless
Stream size : 50.8 KiB (0%)
Language : English
Default : No
Forced : No

Text #3
ID : 5
Format : ASS
Codec ID : S_TEXT/ASS
Duration : 1 h 35 min
Bit rate : 88 b/s
Count of elements : 971
Compression mode : Lossless
Stream size : 61.7 KiB (0%)
Language : Arabic
Default : No
Forced : No

Text #4
ID : 6
Format : ASS
Codec ID : S_TEXT/ASS
Duration : 1 h 35 min
Bit rate : 60 b/s
Count of elements : 935
Compression mode : Lossless
Stream size : 42.0 KiB (0%)
Language : Czech
Default : No
Forced : No

Text #5
ID : 7
Format : ASS
Codec ID : S_TEXT/ASS
Duration : 1 h 35 min
Bit rate : 64 b/s
Count of elements : 994
Compression mode : Lossless
Stream size : 45.0 KiB (0%)
Language : Danish
Default : No
Forced : No

Text #6
ID : 8
Format : ASS
Codec ID : S_TEXT/ASS
Duration : 1 h 35 min
Bit rate : 64 b/s
Count of elements : 985
Compression mode : Lossless
Stream size : 45.0 KiB (0%)
Language : German
Default : No
Forced : No

Text #7
ID : 9
Format : ASS
Codec ID : S_TEXT/ASS
Duration : 1 h 35 min
Bit rate : 86 b/s
Count of elements : 985
Compression mode : Lossless
Stream size : 60.1 KiB (0%)
Language : Greek
Default : No
Forced : No

Text #8
ID : 10
Format : ASS
Codec ID : S_TEXT/ASS
Duration : 1 h 35 min
Bit rate : 64 b/s
Count of elements : 995
Compression mode : Lossless
Stream size : 44.8 KiB (0%)
Language : Spanish
Default : No
Forced : No

Text #9
ID : 11
Format : ASS
Codec ID : S_TEXT/ASS
Duration : 1 h 35 min
Bit rate : 60 b/s
Count of elements : 996
Compression mode : Lossless
Stream size : 42.4 KiB (0%)
Language : Spanish
Default : No
Forced : No

Text #10
ID : 12
Format : ASS
Codec ID : S_TEXT/ASS
Duration : 1 h 35 min
Bit rate : 62 b/s
Count of elements : 1001
Compression mode : Lossless
Stream size : 43.7 KiB (0%)
Language : Finnish
Default : No
Forced : No

Text #11
ID : 13
Format : ASS
Codec ID : S_TEXT/ASS
Duration : 1 h 35 min
Bit rate : 63 b/s
Count of elements : 923
Compression mode : Lossless
Stream size : 44.1 KiB (0%)
Language : French
Default : No
Forced : No

Text #12
ID : 14
Format : ASS
Codec ID : S_TEXT/ASS
Duration : 1 h 35 min
Bit rate : 87 b/s
Count of elements : 942
Compression mode : Lossless
Stream size : 60.9 KiB (0%)
Language : Hebrew
Default : No
Forced : No

Text #13
ID : 15
Format : ASS
Codec ID : S_TEXT/ASS
Duration : 1 h 35 min
Bit rate : 127 b/s
Count of elements : 999
Compression mode : Lossless
Stream size : 88.8 KiB (0%)
Language : Hindi
Default : No
Forced : No

Text #14
ID : 16
Format : ASS
Codec ID : S_TEXT/ASS
Duration : 1 h 35 min
Bit rate : 64 b/s
Count of elements : 1001
Compression mode : Lossless
Stream size : 45.3 KiB (0%)
Language : Hungarian
Default : No
Forced : No

Text #15
ID : 17
Format : ASS
Codec ID : S_TEXT/ASS
Duration : 1 h 35 min
Bit rate : 62 b/s
Count of elements : 936
Compression mode : Lossless
Stream size : 43.4 KiB (0%)
Language : Indonesian
Default : No
Forced : No

Text #16
ID : 18
Format : ASS
Codec ID : S_TEXT/ASS
Duration : 1 h 35 min
Bit rate : 64 b/s
Count of elements : 998
Compression mode : Lossless
Stream size : 44.7 KiB (0%)
Language : Italian
Default : No
Forced : No

Text #17
ID : 19
Format : ASS
Codec ID : S_TEXT/ASS
Duration : 1 h 35 min
Bit rate : 60 b/s
Count of elements : 949
Compression mode : Lossless
Stream size : 42.4 KiB (0%)
Language : Japanese
Default : No
Forced : No

Text #18
ID : 20
Format : ASS
Codec ID : S_TEXT/ASS
Duration : 1 h 35 min
Bit rate : 76 b/s
Count of elements : 1008
Compression mode : Lossless
Stream size : 53.2 KiB (0%)
Language : Korean
Default : No
Forced : No

Text #19
ID : 21
Format : ASS
Codec ID : S_TEXT/ASS
Duration : 1 h 35 min
Bit rate : 61 b/s
Count of elements : 914
Compression mode : Lossless
Stream size : 42.8 KiB (0%)
Language : Norwegian Bokmal
Default : No
Forced : No

Text #20
ID : 22
Format : ASS
Codec ID : S_TEXT/ASS
Duration : 1 h 28 min
Bit rate : 59 b/s
Count of elements : 805
Compression mode : Lossless
Stream size : 38.9 KiB (0%)
Language : Dutch
Default : No
Forced : No

Text #21
ID : 23
Format : ASS
Codec ID : S_TEXT/ASS
Duration : 1 h 35 min
Bit rate : 61 b/s
Count of elements : 988
Compression mode : Lossless
Stream size : 42.5 KiB (0%)
Language : Polish
Default : No
Forced : No

Text #22
ID : 24
Format : ASS
Codec ID : S_TEXT/ASS
Duration : 1 h 35 min
Bit rate : 61 b/s
Count of elements : 988
Compression mode : Lossless
Stream size : 42.8 KiB (0%)
Language : Portuguese
Default : No
Forced : No

Text #23
ID : 25
Format : ASS
Codec ID : S_TEXT/ASS
Duration : 1 h 35 min
Bit rate : 66 b/s
Count of elements : 997
Compression mode : Lossless
Stream size : 46.5 KiB (0%)
Language : Portuguese
Default : No
Forced : No

Text #24
ID : 26
Format : ASS
Codec ID : S_TEXT/ASS
Duration : 1 h 35 min
Bit rate : 65 b/s
Count of elements : 908
Compression mode : Lossless
Stream size : 45.6 KiB (0%)
Language : Romanian
Default : No
Forced : No

Text #25
ID : 27
Format : ASS
Codec ID : S_TEXT/ASS
Duration : 1 h 35 min
Bit rate : 83 b/s
Count of elements : 1004
Compression mode : Lossless
Stream size : 58.0 KiB (0%)
Language : Russian
Default : No
Forced : No

Text #26
ID : 28
Format : ASS
Codec ID : S_TEXT/ASS
Duration : 1 h 35 min
Bit rate : 61 b/s
Count of elements : 990
Compression mode : Lossless
Stream size : 43.1 KiB (0%)
Language : Swedish
Default : No
Forced : No

Text #27
ID : 29
Format : ASS
Codec ID : S_TEXT/ASS
Duration : 1 h 35 min
Bit rate : 121 b/s
Count of elements : 1001
Compression mode : Lossless
Stream size : 84.6 KiB (0%)
Language : Thai
Default : No
Forced : No

Text #28
ID : 30
Format : ASS
Codec ID : S_TEXT/ASS
Duration : 1 h 35 min
Bit rate : 63 b/s
Count of elements : 994
Compression mode : Lossless
Stream size : 44.6 KiB (0%)
Language : Turkish
Default : No
Forced : No

Text #29
ID : 31
Format : ASS
Codec ID : S_TEXT/ASS
Duration : 1 h 35 min
Bit rate : 76 b/s
Count of elements : 1001
Compression mode : Lossless
Stream size : 53.0 KiB (0%)
Language : Vietnamese
Default : No
Forced : No

Text #30
ID : 32
Format : ASS
Codec ID : S_TEXT/ASS
Duration : 1 h 35 min
Bit rate : 66 b/s
Count of elements : 997
Compression mode : Lossless
Stream size : 46.5 KiB (0%)
Language : Chinese
Default : No
Forced : No

Text #31
ID : 33
Format : ASS
Codec ID : S_TEXT/ASS
Duration : 1 h 35 min
Bit rate : 66 b/s
Count of elements : 1003
Compression mode : Lossless
Stream size : 46.6 KiB (0%)
Language : Chinese
Default : No
Forced : No

[collapse]
Download Link(s)

Download

Direct download files get automatically deleted after a month or so. Posted on : 10/18/2019

[collapse]
Magnet Link

Magnet

Eli.2019.1080p.NF.WEBRip.DDP5.1.x264-NTG-4.52 GB

[collapse]

You may also like...

error: nah :p~