Elite Squad (2007)

Tropa de Elite (original title) | R | 1h 55min | Action, Crime, Drama | 12 October 2007 (Brazil)

1997, Captain Nascimento has to find a substitute for his occupation while trying to take down drug dealers and criminals before the Pope comes to Rio de Janeiro, Brazil.

Watch trailer

Media information

General
Format : Matroska
Format version : Version 4
File size : 1.46 GiB
Duration : 1 h 54 min
Overall bit rate : 1 824 kb/s
Movie name : Tropa.De.Elite.Elite.Squad.2007.720p.BluRay.2CH.x265.HEVC
Encoded date : UTC 2018-09-02 11:11:15
Writing application : mkvmerge v26.0.0 (‘In The Game’) 32-bit
Writing library : libebml v1.3.6 + libmatroska v1.4.9

Video
ID : 1
Format : HEVC
Format/Info : High Efficiency Video Coding
Format profile : [email protected]@Main
Codec ID : V_MPEGH/ISO/HEVC
Duration : 1 h 54 min
Bit rate : 1 702 kb/s
Width : 1 280 pixels
Height : 720 pixels
Display aspect ratio : 1.85:1
Frame rate mode : Constant
Frame rate : 23.976 (24000/1001) FPS
Color space : YUV
Chroma subsampling : 4:2:0
Bit depth : 8 bits
Bits/(Pixel*Frame) : 0.077
Stream size : 1.36 GiB (93%)
Default : Yes
Forced : No
Color range : Limited
Color primaries : BT.709
Transfer characteristics : BT.709
Matrix coefficients : BT.709

Audio
ID : 2
Format : Opus
Codec ID : A_OPUS
Duration : 1 h 54 min
Bit rate : 119 kb/s
Channel(s) : 2 channels
Channel layout : L R
Sampling rate : 48.0 kHz
Frame rate : 50.000 FPS (960 SPF)
Compression mode : Lossy
Delay relative to video : -7 ms
Stream size : 97.4 MiB (7%)
Title : Stereo
Language : German
Default : Yes
Forced : No

Text
ID : 3
Format : ASS
Codec ID : S_TEXT/ASS
Codec ID/Info : Advanced Sub Station Alpha
Duration : 1 h 48 min
Bit rate : 120 b/s
Count of elements : 1524
Compression mode : Lossless
Stream size : 96.3 KiB (0%)
Language : English
Default : Yes
Forced : Yes

[collapse]
Download Link(s)

Part01 Part02

[RE-UP] – Direct download files get automatically deleted after a month or so. Posted on : 09/02/2018

[collapse]
Magnet Link

Magnet

Source : Tropa.de.Elite.2007.1080p.BluRay.DTS.x264-ESiR-15.93 GB

[collapse]

You may also like...

error: nah :p~