Elite Squad (2007)

Tropa de Elite (original title) | R | 1h 55min | Action, Crime, Drama | 12 October 2007 (Brazil)

1997, Captain Nascimento has to find a substitute for his occupation while trying to take down drug dealers and criminals before the Pope comes to Rio de Janeiro, Brazil.

Watch trailer

Media information

General
Format : Matroska
Format version : Version 4
File size : 1.45 GiB
Duration : 1 h 54 min
Overall bit rate : 1 807 kb/s
Movie name : Elite.Squad.2007.PORTUGUESE.1080p.10bit.BluRay.6CH.x265.HEVC

Video
ID : 1
Format : HEVC
Format/Info : High Efficiency Video Coding
Format profile : Main [email protected]@Main
Codec ID : V_MPEGH/ISO/HEVC
Duration : 1 h 54 min
Bit rate : 1 600 kb/s
Width : 1 920 pixels
Height : 1 038 pixels
Display aspect ratio : 1.85:1
Frame rate mode : Constant
Frame rate : 23.976 (24000/1001) FPS
Color space : YUV
Chroma subsampling : 4:2:0
Bit depth : 10 bits
Bits/(Pixel*Frame) : 0.033
Stream size : 1.28 GiB (89%)
Default : Yes
Forced : No
Color range : Limited
Color primaries : BT.709
Transfer characteristics : BT.709
Matrix coefficients : BT.709

Audio
ID : 2
Format : AAC LC
Codec ID : A_AAC-2
Duration : 1 h 54 min
Bit rate : 192 kb/s
Channel(s) : 6 channels
Channel layout : C L R Ls Rs LFE
Sampling rate : 48.0 kHz
Frame rate : 46.875 FPS (1024 SPF)
Compression mode : Lossy
Delay relative to video : -21 ms
Stream size : 157 MiB (11%)
Language : Portuguese
Default : Yes
Forced : No

Text
ID : 3
Format : PGS
Muxing mode : zlib
Codec ID : S_HDMV/PGS
Duration : 1 h 47 min
Bit rate : 45.1 kb/s
Count of elements : 2975
Stream size : 34.7 MiB (2%)
Language : English
Default : Yes
Forced : Yes

[collapse]
Download Link(s)

Download

Direct download files get automatically deleted after a month or so. Posted on : 26/05/2020

[collapse]
Magnet Link

Magnet

Elite.Squad.2007.PORTUGUESE.1080p.BluRay.REMUX.VC-1.DTS-HD.MA.5.1-FGT-20.18 GB

[collapse]

Media information

General
Format : Matroska
Format version : Version 4
File size : 826 MiB
Duration : 1 h 54 min
Overall bit rate : 1 007 kb/s
Movie name : Elite.Squad.2007.PORTUGUESE.720p.10bit.BluRay.6CH.x265.HEVC

Video
ID : 1
Format : HEVC
Format/Info : High Efficiency Video Coding
Format profile : Main [email protected]@Main
Codec ID : V_MPEGH/ISO/HEVC
Duration : 1 h 54 min
Bit rate : 800 kb/s
Width : 1 280 pixels
Height : 720 pixels
Display aspect ratio : 1.85:1
Frame rate mode : Constant
Frame rate : 23.976 (24000/1001) FPS
Color space : YUV
Chroma subsampling : 4:2:0
Bit depth : 10 bits
Bits/(Pixel*Frame) : 0.036
Stream size : 657 MiB (79%)
Default : Yes
Forced : No
Color range : Limited
Color primaries : BT.709
Transfer characteristics : BT.709
Matrix coefficients : BT.709

Audio
ID : 2
Format : AAC LC
Codec ID : A_AAC-2
Duration : 1 h 54 min
Bit rate : 192 kb/s
Channel(s) : 6 channels
Channel layout : C L R Ls Rs LFE
Sampling rate : 48.0 kHz
Frame rate : 46.875 FPS (1024 SPF)
Compression mode : Lossy
Delay relative to video : -21 ms
Stream size : 157 MiB (19%)
Language : Portuguese
Default : Yes
Forced : No

Text
ID : 3
Format : PGS
Muxing mode : zlib
Codec ID : S_HDMV/PGS
Duration : 1 h 47 min
Bit rate : 45.1 kb/s
Count of elements : 2975
Stream size : 34.7 MiB (4%)
Language : English
Default : Yes
Forced : Yes

[collapse]
Download Link(s)

Download

Direct download files get automatically deleted after a month or so. Posted on : 26/05/2020

[collapse]
Magnet Link

Magnet

Elite.Squad.2007.PORTUGUESE.1080p.BluRay.REMUX.VC-1.DTS-HD.MA.5.1-FGT-20.18 GB

[collapse]

You may also like...

error: nah :p~