Elite Squad: The Enemy Within (2010)

PG-13 | 1h 57min | Action, Drama, Thriller | 21 February 2014 (USA)

Tropa de Elite 2: O Inimigo Agora é Outro (original title) | Not Rated | 1h 55min | Action, Crime, Drama | 8 October 2010 (Brazil)

Watch trailer

Media information

General
Format : Matroska
Format version : Version 4
File size : 1.05 GiB
Duration : 1 h 54 min
Overall bit rate : 1 311 kb/s
Movie name : Tropa.De.Elite.2.Elite Squad.The.Enemy.Within.2010.720p.BluRay.2CH.x265.HEVC
Encoded date : UTC 2018-09-02 11:16:59
Writing application : mkvmerge v26.0.0 (‘In The Game’) 32-bit
Writing library : libebml v1.3.6 + libmatroska v1.4.9

Video
ID : 1
Format : HEVC
Format/Info : High Efficiency Video Coding
Format profile : [email protected]@Main
Codec ID : V_MPEGH/ISO/HEVC
Duration : 1 h 54 min
Bit rate : 1 188 kb/s
Width : 1 280 pixels
Height : 720 pixels
Display aspect ratio : 16:9
Frame rate mode : Constant
Frame rate : 23.976 (24000/1001) FPS
Color space : YUV
Chroma subsampling : 4:2:0
Bit depth : 8 bits
Bits/(Pixel*Frame) : 0.054
Stream size : 976 MiB (91%)
Default : Yes
Forced : No
Color range : Limited
Color primaries : BT.709
Transfer characteristics : BT.709
Matrix coefficients : BT.709

Audio
ID : 2
Format : Opus
Codec ID : A_OPUS
Duration : 1 h 54 min
Bit rate : 120 kb/s
Channel(s) : 2 channels
Channel layout : L R
Sampling rate : 48.0 kHz
Frame rate : 50.000 FPS (960 SPF)
Compression mode : Lossy
Delay relative to video : -7 ms
Stream size : 98.8 MiB (9%)
Title : Stereo
Language : German
Default : Yes
Forced : No

Text
ID : 3
Format : ASS
Codec ID : S_TEXT/ASS
Codec ID/Info : Advanced Sub Station Alpha
Duration : 1 h 49 min
Bit rate : 142 b/s
Count of elements : 1984
Compression mode : Lossless
Stream size : 115 KiB (0%)
Language : English
Default : Yes
Forced : Yes

[collapse]
Download Link(s)

Part01 Part02

[RE-UP]-Direct download files get automatically deleted after a month or so. Posted on : 11/10/2018

[collapse]
Magnet Link

Magnet

Source : Elite.Squad.The.Enemy.Within.2010.PORTUGUESE.1080p.BluRay.x264-iNVANDRAREN-7.72 GB

[collapse]

You may also like...

error: nah :p~