Elite Squad: The Enemy Within (2010)

PG-13 | 1h 57min | Action, Drama, Thriller | 21 February 2014 (USA)

Tropa de Elite 2: O Inimigo Agora é Outro (original title) | Not Rated | 1h 55min | Action, Crime, Drama | 8 October 2010 (Brazil)

Watch trailer

Media information

General
Format : Matroska
Format version : Version 4
File size : 1.40 GiB
Duration : 1 h 55 min
Overall bit rate : 1 745 kb/s
Movie name : Elite.Squad.The.Enemy.Within.2010.1080p.10bit.BluRay.6CH.x265.HEVC

Video
ID : 1
Format : HEVC
Format/Info : High Efficiency Video Coding
Format profile : Main [email protected]@Main
Codec ID : V_MPEGH/ISO/HEVC
Duration : 1 h 55 min
Bit rate : 1 551 kb/s
Width : 1 920 pixels
Height : 1 040 pixels
Display aspect ratio : 1.85:1
Frame rate mode : Constant
Frame rate : 23.976 (24000/1001) FPS
Color space : YUV
Chroma subsampling : 4:2:0
Bit depth : 10 bits
Bits/(Pixel*Frame) : 0.032
Stream size : 1.25 GiB (89%)
Default : Yes
Forced : No
Color range : Limited
Color primaries : BT.709
Transfer characteristics : BT.709
Matrix coefficients : BT.709

Audio
ID : 2
Format : AAC LC
Codec ID : A_AAC-2
Duration : 1 h 55 min
Bit rate : 192 kb/s
Channel(s) : 6 channels
Channel layout : C L R Ls Rs LFE
Sampling rate : 48.0 kHz
Frame rate : 46.875 FPS (1024 SPF)
Compression mode : Lossy
Delay relative to video : -21 ms
Stream size : 158 MiB (11%)
Language : Portuguese
Default : Yes
Forced : No

Text
ID : 3
Format : ASS
Codec ID : S_TEXT/ASS
Duration : 1 h 47 min
Bit rate : 139 b/s
Count of elements : 1984
Compression mode : Lossless
Stream size : 110 KiB (0%)
Language : English
Default : Yes
Forced : Yes

[collapse]
Download Link(s)

Download

Direct download files get automatically deleted after a month or so. Posted on : 05/27/2020

[collapse]
Magnet Link

Magnet

Elite.Squad.The.Enemy.Within.2010.1080p.BluRay.x264-ROUGH-8.63 GB

[collapse]

Media information

General
Format : Matroska
Format version : Version 4
File size : 860 MiB
Duration : 1 h 55 min
Overall bit rate : 1 045 kb/s
Movie name : Elite.Squad.The.Enemy.Within.2010.720p.10bit.BluRay.6CH.x265.HEVC

Video
ID : 1
Format : HEVC
Format/Info : High Efficiency Video Coding
Format profile : Main [email protected]@Main
Codec ID : V_MPEGH/ISO/HEVC
Duration : 1 h 55 min
Bit rate : 851 kb/s
Width : 1 280 pixels
Height : 694 pixels
Display aspect ratio : 1.85:1
Frame rate mode : Constant
Frame rate : 23.976 (24000/1001) FPS
Color space : YUV
Chroma subsampling : 4:2:0
Bit depth : 10 bits
Bits/(Pixel*Frame) : 0.040
Stream size : 700 MiB (81%)
Default : Yes
Forced : No
Color range : Limited
Color primaries : BT.709
Transfer characteristics : BT.709
Matrix coefficients : BT.709

Audio
ID : 2
Format : AAC LC
Codec ID : A_AAC-2
Duration : 1 h 55 min
Bit rate : 192 kb/s
Channel(s) : 6 channels
Channel layout : C L R Ls Rs LFE
Sampling rate : 48.0 kHz
Frame rate : 46.875 FPS (1024 SPF)
Compression mode : Lossy
Delay relative to video : -21 ms
Stream size : 158 MiB (18%)
Language : Portuguese
Default : Yes
Forced : No

Text
ID : 3
Format : ASS
Codec ID : S_TEXT/ASS
Duration : 1 h 47 min
Bit rate : 139 b/s
Count of elements : 1984
Compression mode : Lossless
Stream size : 110 KiB (0%)
Language : English
Default : Yes
Forced : Yes

[collapse]
Download Link(s)

Download

Direct download files get automatically deleted after a month or so. Posted on : 05/27/2020

[collapse]
Magnet Link

Magnet

Elite.Squad.The.Enemy.Within.2010.1080p.BluRay.x264-ROUGH-8.63 GB

[collapse]

You may also like...

error: nah :p~