Ellen DeGeneres: Relatable (2018)

1h 8min | Comedy | TV Special 18 December 2018

Comedian Ellen Degeneres performs a live stand-up comedy set in Seattle.

Watch trailer

Media information

General
Format : Matroska
Format version : Version 4
File size : 604 MiB
Duration : 1 h 8 min
Overall bit rate : 1 238 kb/s
Movie name : Ellen.DeGeneres.Relatable.2018.720p.WEB-DL.2CH.x264.AVC
Encoded date : UTC 2018-12-20 14:52:31
Writing application : mkvmerge v29.0.0 (‘Like It Or Not’) 32-bit
Writing library : libebml v1.3.6 + libmatroska v1.4.9

Video
ID : 20
Format : AVC
Format/Info : Advanced Video Codec
Format profile : [email protected]
Format settings : CABAC / 5 Ref Frames
Format settings, CABAC : Yes
Format settings, RefFrames : 5 frames
Codec ID : V_MPEG4/ISO/AVC
Duration : 1 h 8 min
Bit rate : 1 134 kb/s
Width : 1 280 pixels
Height : 720 pixels
Display aspect ratio : 16:9
Frame rate mode : Constant
Frame rate : 23.976 (24000/1001) FPS
Color space : YUV
Chroma subsampling : 4:2:0
Bit depth : 8 bits
Scan type : Progressive
Bits/(Pixel*Frame) : 0.051
Stream size : 553 MiB (92%)
Default : Yes
Forced : No
Color range : Limited
Color primaries : BT.709
Transfer characteristics : BT.709
Matrix coefficients : BT.709

Audio
ID : 1
Format : AAC LC SBR
Commercial name : HE-AAC
Format settings : Explicit
Codec ID : A_AAC-2
Duration : 1 h 8 min
Bit rate : 100.0 kb/s
Channel(s) : 2 channels
Channel layout : L R
Sampling rate : 48.0 kHz
Frame rate : 23.438 FPS (2048 SPF)
Compression mode : Lossy
Delay relative to video : 31 ms
Stream size : 48.8 MiB (8%)
Language : English
Default : Yes
Forced : No

Text #1
ID : 2
Format : UTF-8
Codec ID : S_TEXT/UTF8
Codec ID/Info : UTF-8 Plain Text
Duration : 1 h 7 min
Bit rate : 93 b/s
Count of elements : 1203
Stream size : 46.3 KiB (0%)
Language : English
Default : Yes
Forced : No

Text #2
ID : 3
Format : UTF-8
Codec ID : S_TEXT/UTF8
Codec ID/Info : UTF-8 Plain Text
Duration : 1 h 7 min
Bit rate : 68 b/s
Count of elements : 972
Stream size : 34.2 KiB (0%)
Title : Brazilian
Language : Portuguese
Default : No
Forced : No

Text #3
ID : 4
Format : UTF-8
Codec ID : S_TEXT/UTF8
Codec ID/Info : UTF-8 Plain Text
Duration : 1 h 7 min
Bit rate : 79 b/s
Count of elements : 971
Stream size : 39.3 KiB (0%)
Language : Danish
Default : No
Forced : No

Text #4
ID : 5
Format : UTF-8
Codec ID : S_TEXT/UTF8
Codec ID/Info : UTF-8 Plain Text
Duration : 1 h 7 min
Bit rate : 66 b/s
Count of elements : 788
Stream size : 33.3 KiB (0%)
Language : Dutch
Default : No
Forced : No

Text #5
ID : 6
Format : UTF-8
Codec ID : S_TEXT/UTF8
Codec ID/Info : UTF-8 Plain Text
Duration : 1 h 7 min
Bit rate : 65 b/s
Count of elements : 1019
Stream size : 32.4 KiB (0%)
Title : European
Language : Spanish
Default : No
Forced : No

Text #6
ID : 7
Format : UTF-8
Codec ID : S_TEXT/UTF8
Codec ID/Info : UTF-8 Plain Text
Duration : 1 h 7 min
Bit rate : 65 b/s
Count of elements : 747
Stream size : 32.1 KiB (0%)
Language : Finnish
Default : No
Forced : No

Text #7
ID : 8
Format : UTF-8
Codec ID : S_TEXT/UTF8
Codec ID/Info : UTF-8 Plain Text
Duration : 1 h 7 min
Bit rate : 80 b/s
Count of elements : 954
Stream size : 40.2 KiB (0%)
Language : French
Default : No
Forced : No

Text #8
ID : 9
Format : UTF-8
Codec ID : S_TEXT/UTF8
Codec ID/Info : UTF-8 Plain Text
Duration : 1 h 7 min
Bit rate : 83 b/s
Count of elements : 1019
Stream size : 41.5 KiB (0%)
Language : German
Default : No
Forced : No

Text #9
ID : 10
Format : UTF-8
Codec ID : S_TEXT/UTF8
Codec ID/Info : UTF-8 Plain Text
Duration : 1 h 7 min
Bit rate : 118 b/s
Count of elements : 1000
Stream size : 58.9 KiB (0%)
Language : Greek
Default : No
Forced : No

Text #10
ID : 11
Format : UTF-8
Codec ID : S_TEXT/UTF8
Codec ID/Info : UTF-8 Plain Text
Duration : 1 h 7 min
Bit rate : 78 b/s
Count of elements : 1034
Stream size : 39.2 KiB (0%)
Language : Indonesian
Default : No
Forced : No

Text #11
ID : 12
Format : UTF-8
Codec ID : S_TEXT/UTF8
Codec ID/Info : UTF-8 Plain Text
Duration : 1 h 7 min
Bit rate : 75 b/s
Count of elements : 1023
Stream size : 37.5 KiB (0%)
Language : Italian
Default : No
Forced : No

Text #12
ID : 13
Format : UTF-8
Codec ID : S_TEXT/UTF8
Codec ID/Info : UTF-8 Plain Text
Duration : 1 h 7 min
Bit rate : 70 b/s
Count of elements : 1060
Stream size : 35.3 KiB (0%)
Language : Norwegian Bokmal
Default : No
Forced : No

Text #13
ID : 14
Format : UTF-8
Codec ID : S_TEXT/UTF8
Codec ID/Info : UTF-8 Plain Text
Duration : 1 h 7 min
Bit rate : 68 b/s
Count of elements : 922
Stream size : 34.2 KiB (0%)
Language : Polish
Default : No
Forced : No

Text #14
ID : 15
Format : UTF-8
Codec ID : S_TEXT/UTF8
Codec ID/Info : UTF-8 Plain Text
Duration : 1 h 7 min
Bit rate : 92 b/s
Count of elements : 1075
Stream size : 45.8 KiB (0%)
Language : Portuguese
Default : No
Forced : No

Text #15
ID : 16
Format : UTF-8
Codec ID : S_TEXT/UTF8
Codec ID/Info : UTF-8 Plain Text
Duration : 1 h 7 min
Bit rate : 131 b/s
Count of elements : 1032
Stream size : 65.3 KiB (0%)
Language : Russian
Default : No
Forced : No

Text #16
ID : 17
Format : UTF-8
Codec ID : S_TEXT/UTF8
Codec ID/Info : UTF-8 Plain Text
Duration : 1 h 7 min
Bit rate : 71 b/s
Count of elements : 1030
Stream size : 35.8 KiB (0%)
Language : Spanish
Default : No
Forced : No

Text #17
ID : 18
Format : UTF-8
Codec ID : S_TEXT/UTF8
Codec ID/Info : UTF-8 Plain Text
Duration : 1 h 7 min
Bit rate : 75 b/s
Count of elements : 1021
Stream size : 37.3 KiB (0%)
Language : Swedish
Default : No
Forced : No

Text #18
ID : 19
Format : UTF-8
Codec ID : S_TEXT/UTF8
Codec ID/Info : UTF-8 Plain Text
Duration : 1 h 7 min
Bit rate : 75 b/s
Count of elements : 1016
Stream size : 37.5 KiB (0%)
Language : Turkish
Default : No
Forced : No

[collapse]
Download Link(s)

Download

Direct download files get automatically deleted after a month or so. Posted on : 12/20/2018

[collapse]
Magnet Link

Magnet

Ellen DeGeneres-Relatable 2018 720p WEB-DL-RPG-410.7 MB

[collapse]

You may also like...

error: nah :p~