Enemy Within (2019)

TV-14 | 1h 49min | Action, Drama, History | 19 April 2019 (USA)

When a Japanese pilot crash-lands on the tiny remote Hawaiian island of Ni’ihau, he is met with courtesy and traditional Hawaiian hospitality from the locals – until they discover he was part of the recent attack on Pearl Harbor.

Watch trailer

Media information

General
Format : Matroska
Format version : Version 4
File size : 675 MiB
Duration : 1 h 49 min
Overall bit rate : 864 kb/s
Movie name : Enemy.Within.2019.720p.WEB-DL.2CH.x265.HEVC
Encoded date : UTC 2019-08-13 12:54:45
Writing application : mkvmerge v36.0.0 (‘Is That Jazz?’) 32-bit
Writing library : libebml v1.3.9 + libmatroska v1.5.2

Video
ID : 1
Format : HEVC
Format/Info : High Efficiency Video Coding
Format profile : [email protected]@Main
Codec ID : V_MPEGH/ISO/HEVC
Duration : 1 h 49 min
Bit rate : 790 kb/s
Width : 1 280 pixels
Height : 688 pixels
Display aspect ratio : 1.85:1
Frame rate mode : Constant
Frame rate : 24.000 FPS
Color space : YUV
Chroma subsampling : 4:2:0
Bit depth : 8 bits
Bits/(Pixel*Frame) : 0.037
Stream size : 617 MiB (91%)
Default : Yes
Forced : No

Audio
ID : 2
Format : AAC LC SBR
Commercial name : HE-AAC
Format settings : Explicit
Codec ID : A_AAC-2
Duration : 1 h 49 min
Bit rate : 72.0 kb/s
Channel(s) : 2 channels
Channel layout : L R
Sampling rate : 48.0 kHz
Frame rate : 23.438 FPS (2048 SPF)
Compression mode : Lossy
Delay relative to video : 23 ms
Stream size : 56.2 MiB (8%)
Language : English
Default : Yes
Forced : No

Text
ID : 3
Format : UTF-8
Codec ID : S_TEXT/UTF8
Codec ID/Info : UTF-8 Plain Text
Duration : 1 h 47 min
Bit rate : 40 b/s
Count of elements : 1161
Stream size : 31.9 KiB (0%)
Language : English
Default : Yes
Forced : No

[collapse]
Download Link(s)

Download

Direct download files get automatically deleted after a month or so. Posted on : 08/14/2019

[collapse]
Magnet Link

Magnet

Enemy.Within.2019.1080p.WEB-DL.DD5.1.H264-FGT-4.24 GB

[collapse]

You may also like...

error: nah :p~