Escape from Mr. Lemoncello’s Library (2017)

1h 9min | Family | TV Movie 9 October 2017

Can twelve 12-year-olds escape from the most ridiculously brilliant library ever created? Escape from Mr. Lemoncello’s Library plunks a dozen sixth-graders into the middle of a futuristic library for a night of nonstop fun and adventure.

Watch trailer

Media information

General
Format : Matroska
Format version : Version 4 / Version 2
File size : 264 MiB
Duration : 1 h 7 min
Overall bit rate : 546 kb/s
Movie name : Escape.From.Mr.Lemoncellos.Library.2017.720p.HDTV.2CH.x265.HEVC
Encoded date : UTC 2018-08-02 06:48:24
Writing application : mkvmerge v25.0.0 (‘Prog Noir’) 32-bit
Writing library : libebml v1.3.6 + libmatroska v1.4.9

Video
ID : 1
Format : HEVC
Format/Info : High Efficiency Video Coding
Format profile : [email protected]@Main
Codec ID : V_MPEGH/ISO/HEVC
Duration : 1 h 7 min
Bit rate : 432 kb/s
Width : 720 pixels
Height : 404 pixels
Display aspect ratio : 16:9
Frame rate mode : Constant
Frame rate : 23.976 (24000/1001) FPS
Color space : YUV
Chroma subsampling : 4:2:0
Bit depth : 8 bits
Bits/(Pixel*Frame) : 0.062
Stream size : 209 MiB (79%)
Default : Yes
Forced : No
Color range : Limited
Color primaries : BT.601 NTSC
Transfer characteristics : BT.709
Matrix coefficients : BT.709

Audio
ID : 2
Format : AAC
Format/Info : Advanced Audio Codec
Format profile : LC
Codec ID : A_AAC-2
Duration : 1 h 7 min
Bit rate : 112 kb/s
Channel(s) : 2 channels
Channel positions : Front: L R
Sampling rate : 48.0 kHz
Frame rate : 46.875 FPS (1024 SPF)
Compression mode : Lossy
Delay relative to video : 20 ms
Stream size : 54.3 MiB (21%)
Title : Stereo
Language : English
Default : Yes
Forced : No

Text
ID : 3
Format : ASS
Codec ID : S_TEXT/ASS
Codec ID/Info : Advanced Sub Station Alpha
Duration : 1 h 7 min
Bit rate : 164 b/s
Count of elements : 1367
Compression mode : Lossless
Stream size : 81.0 KiB (0%)
Language : English
Default : Yes
Forced : Yes

[collapse]
Download Link(s)

Download

[RE-UP] -Direct download files get automatically deleted after a month or so. Posted on : 08/02/2018

[collapse]
Magnet Link

 

Magnet

Source : Escape.From.Mr.Lemoncellos.Library.2017.HDTV.x264-REGRET-591.57 MB

[collapse]

You may also like...

error: nah :p~