Escape from Pleasure Planet (2016)

Not Rated | 1h 21min | Action, Comedy, Fantasy | Video 8 November 2016

A Princess has her erotic vacation interrupted when a renegade alien force, led by her arch enemy, Aria, attacks Pleasure Planet. A quick escape lands her in even more hot water as the Princess and her busty bodyguard crash land on Earth.

Review & Preview

Media information

General
Format : Matroska
Format version : Version 4 / Version 2
File size : 635 MiB
Duration : 1 h 22 min
Overall bit rate : 1 082 kb/s
Movie name : Escape.from.Pleasure.Planet.2016.720p.WEBRip.2CH.x265.HEVC
Encoded date : UTC 2017-11-29 22:12:20
Writing application : mkvmerge v18.0.0 (‘Apricity’) 32-bit
Writing library : libebml v1.3.5 + libmatroska v1.4.8

Video
ID : 1
Format : HEVC
Format/Info : High Efficiency Video Coding
Format profile : [email protected]@Main
Codec ID : V_MPEGH/ISO/HEVC
Duration : 1 h 22 min
Bit rate : 1 002 kb/s
Width : 1 280 pixels
Height : 720 pixels
Display aspect ratio : 16:9
Frame rate mode : Constant
Frame rate : 23.976 (24000/1001) FPS
Color space : YUV
Chroma subsampling : 4:2:0
Bit depth : 8 bits
Bits/(Pixel*Frame) : 0.045
Stream size : 588 MiB (93%)
Default : Yes
Forced : No

Audio
ID : 2
Format : AAC
Format/Info : Advanced Audio Codec
Format profile : HE-AAC / LC
Format settings : Explicit
Codec ID : A_AAC-2
Duration : 1 h 22 min
Bit rate : 77.1 kb/s
Channel(s) : 2 channels
Channel positions : Front: L R
Sampling rate : 48.0 kHz / 24.0 kHz
Frame rate : 23.438 FPS (1024 SPF)
Compression mode : Lossy
Delay relative to video : 23 ms
Stream size : 45.2 MiB (7%)
Default : Yes
Forced : No

Text
ID : 3
Format : UTF-8
Codec ID : S_TEXT/UTF8
Codec ID/Info : UTF-8 Plain Text
Duration : 1 h 20 min
Bit rate : 33 b/s
Count of elements : 763
Stream size : 20.1 KiB (0%)
Language : English
Default : Yes
Forced : No

[collapse]
Download Link(s)

Download

[RE-UP] -Direct download files get automatically deleted after a month or so. Posted on : 07/21/2018

[collapse]
Magnet Link

Magnet

Source : Escape.from.Pleasure.Planet.2016.1080p.AMZN.WEBRip.DDP2.0.x264-QOQ-5.45 GB

[collapse]

Screen Caps

 

Image01 | Image02 | Image03 | Image04

[collapse]

 

You may also like...

error: nah :p~