Extinction: The Facts

With an eighth of the planet’s species at risk of dying out, this documentary offered a stark look at the devastation that humans have wreaked, and are wreaking, on the natural world

Watch trailer

Media information

General
Format : Matroska
Format version : Version 4
File size : 636 MiB
Duration : 58 min 1 s
Overall bit rate : 1 532 kb/s
Movie name : BBC.Extinction.The.Facts.1080p.10bit.HDTV.2CH.x265.HEVC

Video
ID : 1
Format : HEVC
Format/Info : High Efficiency Video Coding
Format profile : Main [email protected]@Main
Codec ID : V_MPEGH/ISO/HEVC
Duration : 58 min 1 s
Bit rate : 1 401 kb/s
Width : 1 920 pixels
Height : 960 pixels
Display aspect ratio : 2.000
Frame rate mode : Constant
Frame rate : 25.000 FPS
Color space : YUV
Chroma subsampling : 4:2:0
Bit depth : 10 bits
Bits/(Pixel*Frame) : 0.030
Stream size : 581 MiB (91%)
Default : Yes
Forced : No
Color range : Limited
Color primaries : BT.709
Transfer characteristics : BT.709
Matrix coefficients : BT.709

Audio
ID : 2
Format : AAC LC
Codec ID : A_AAC-2
Duration : 58 min 1 s
Bit rate : 128 kb/s
Channel(s) : 2 channels
Channel layout : L R
Sampling rate : 48.0 kHz
Frame rate : 46.875 FPS (1024 SPF)
Compression mode : Lossy
Delay relative to video : -12 ms
Stream size : 53.3 MiB (8%)
Language : English
Default : Yes
Forced : No

Text
ID : 3
Format : UTF-8
Codec ID : S_TEXT/UTF8
Codec ID/Info : UTF-8 Plain Text
Duration : 57 min 22 s
Bit rate : 86 b/s
Count of elements : 850
Stream size : 36.2 KiB (0%)
Language : English
Default : Yes
Forced : No

[collapse]
Download Link(s)

Download

Direct download files get automatically deleted after a month or so. Posted on : 09/16/2020

[collapse]
Magnet Link

Magnet

BBC.Extinction.The.Facts.1080p.HDTV.x265.AAC- 1.18 GB

[collapse]

Media information

General
Format : Matroska
Format version : Version 4
File size : 387 MiB
Duration : 58 min 1 s
Overall bit rate : 932 kb/s
Movie name : BBC.Extinction.The.Facts.720p.10bit.HDTV.2CH.x265.HEVC

Video
ID : 1
Format : HEVC
Format/Info : High Efficiency Video Coding
Format profile : Main [email protected]@Main
Codec ID : V_MPEGH/ISO/HEVC
Duration : 58 min 1 s
Bit rate : 801 kb/s
Width : 1 280 pixels
Height : 640 pixels
Display aspect ratio : 2.000
Frame rate mode : Constant
Frame rate : 25.000 FPS
Color space : YUV
Chroma subsampling : 4:2:0
Bit depth : 10 bits
Bits/(Pixel*Frame) : 0.039
Stream size : 332 MiB (86%)
Default : Yes
Forced : No
Color range : Limited
Color primaries : BT.709
Transfer characteristics : BT.709
Matrix coefficients : BT.709

Audio
ID : 2
Format : AAC LC
Codec ID : A_AAC-2
Duration : 58 min 1 s
Bit rate : 128 kb/s
Channel(s) : 2 channels
Channel layout : L R
Sampling rate : 48.0 kHz
Frame rate : 46.875 FPS (1024 SPF)
Compression mode : Lossy
Delay relative to video : -12 ms
Stream size : 53.3 MiB (14%)
Language : English
Default : Yes
Forced : No

Text
ID : 3
Format : UTF-8
Codec ID : S_TEXT/UTF8
Codec ID/Info : UTF-8 Plain Text
Duration : 57 min 22 s
Bit rate : 86 b/s
Count of elements : 850
Stream size : 36.2 KiB (0%)
Language : English
Default : Yes
Forced : No

[collapse]
Download Link(s)

Download

Direct download files get automatically deleted after a month or so. Posted on : 09/16/2020

[collapse]
Magnet Link

Magnet

BBC.Extinction.The.Facts.1080p.HDTV.x265.AAC- 1.18 GB

[collapse]

You may also like...

error: nah :p~