F2: Fun and Frustration (2019)

PG | 2h 28min | Comedy | 12 January 2019 (India)

After Venky, Varun also gets married thinking he can keep the wife in control but both of them get frustrated with the marital life which generates fun.

Watch trailer

Media information

General
Format : Matroska
Format version : Version 4
File size : 1.16 GiB
Duration : 2 h 27 min
Overall bit rate : 1 124 kb/s
Movie name : F2.Fun.and.Frustration.2019.Telugu.720p.HDRip.2CH.x265.HEVC
Encoded date : UTC 2019-02-16 15:00:09
Writing application : mkvmerge v31.0.0 (‘Dolores In A Shoestand’) 32-bit
Writing library : libebml v1.3.6 + libmatroska v1.4.9
Video
ID : 1
Format : HEVC
Format/Info : High Efficiency Video Coding
Format profile : [email protected]@Main
Codec ID : V_MPEGH/ISO/HEVC
Duration : 2 h 27 min
Bit rate : 1 041 kb/s
Width : 1 280 pixels
Height : 544 pixels
Display aspect ratio : 2.35:1
Frame rate mode : Constant
Frame rate : 24.000 FPS
Color space : YUV
Chroma subsampling : 4:2:0
Bit depth : 8 bits
Bits/(Pixel*Frame) : 0.062
Stream size : 1.07 GiB (93%)
Default : Yes
Forced : No
Color range : Limited
Color primaries : BT.709
Transfer characteristics : BT.709
Matrix coefficients : BT.709

Audio
ID : 2
Format : AAC LC
Codec ID : A_AAC-2
Duration : 2 h 27 min
Bit rate : 80.5 kb/s
Channel(s) : 2 channels
Channel layout : L R
Sampling rate : 44.1 kHz
Frame rate : 43.066 FPS (1024 SPF)
Compression mode : Lossy
Delay relative to video : -23 ms
Stream size : 85.0 MiB (7%)
Title : Stereo
Language : Telugu
Default : Yes
Forced : No

Text
ID : 3
Format : ASS
Codec ID : S_TEXT/ASS
Duration : 2 h 25 min
Bit rate : 166 b/s
Count of elements : 3021
Compression mode : Lossless
Stream size : 178 KiB (0%)
Language : English
Default : Yes
Forced : Yes

[collapse]
Download Link(s)

Download

[RE-UP]-Direct download files get automatically deleted after a month or so. Posted on: 06/24/2019

[collapse]
Magnet Link

Magnet

F2.Fun.and.Frustration.2019.720p.Telugu.Proper-HDRip.x264.DD5.1-1.4GB

[collapse]

You may also like...

error: nah :p~