Fahrenheit 11/9 (2018)

R | 2h 8min | Documentary | 21 September 2018 (USA)

Filmmaker Michael Moore examines the current state of American politics, particularly the Donald Trump presidency and gun violence, while highlighting the power of grassroots democratic movements.

Watch trailer

Media information

General
Format : Matroska
Format version : Version 4
File size : 1.15 GiB
Duration : 2 h 7 min
Overall bit rate : 1 292 kb/s
Movie name : Fahrenheit.11.9.2018.720p.BluRay.2CH.x264.AVC
Encoded date : UTC 2018-12-21 16:49:41
Writing application : mkvmerge v29.0.0 (‘Like It Or Not’) 32-bit
Writing library : libebml v1.3.6 + libmatroska v1.4.9

Video
ID : 2
Format : AVC
Format/Info : Advanced Video Codec
Format profile : [email protected]
Format settings : CABAC / 9 Ref Frames
Format settings, CABAC : Yes
Format settings, RefFrames : 9 frames
Codec ID : V_MPEG4/ISO/AVC
Duration : 2 h 7 min
Bit rate : 1 190 kb/s
Width : 1 280 pixels
Height : 720 pixels
Display aspect ratio : 16:9
Frame rate mode : Constant
Frame rate : 23.976 (24000/1001) FPS
Color space : YUV
Chroma subsampling : 4:2:0
Bit depth : 8 bits
Scan type : Progressive
Bits/(Pixel*Frame) : 0.054
Stream size : 1.06 GiB (92%)
Default : Yes
Forced : No

Audio
ID : 3
Format : AAC LC SBR
Commercial name : HE-AAC
Format settings : Explicit
Codec ID : A_AAC-2
Duration : 2 h 7 min
Bit rate : 100.0 kb/s
Channel(s) : 2 channels
Channel layout : L R
Sampling rate : 48.0 kHz
Frame rate : 23.438 FPS (2048 SPF)
Compression mode : Lossy
Delay relative to video : 31 ms
Stream size : 91.5 MiB (8%)
Language : English
Default : Yes
Forced : No

Text
ID : 1
Format : UTF-8
Codec ID : S_TEXT/UTF8
Codec ID/Info : UTF-8 Plain Text
Duration : 2 h 4 min
Bit rate : 99 b/s
Count of elements : 2106
Stream size : 90.7 KiB (0%)
Language : English
Default : Yes
Forced : No

[collapse]
Download Link(s)

Part01 Part02

Direct download files get automatically deleted after a month or so. Posted on : 12/21/2018

[collapse]
Magnet Link

Magnet

Fahrenheit.11.9.2018.1080p.BluRay.x264-CiNEFiLE-8.80 GB

[collapse]

You may also like...

error: nah :p~