Fargo (1996)

R | 1h 38min | Crime, Drama, Thriller | 5 April 1996 (USA)

Jerry Lundegaard’s inept crime falls apart due to his and his henchmen’s bungling and the persistent police work of the quite pregnant Marge Gunderson.

Watch trailer

Media information

General
Format : Matroska
Format version : Version 4
File size : 500 MiB
Duration : 1 h 38 min
Overall bit rate : 712 kb/s
Movie name : Fargo.1996.REMASTERED.720p.BluRay.2CH.x265.HEVC
Encoded date : UTC 2019-03-09 15:28:02
Writing application : mkvmerge v31.0.0 (‘Dolores In A Shoestand’) 32-bit
Writing library : libebml v1.3.6 + libmatroska v1.4.9

Video
ID : 1
Format : HEVC
Format/Info : High Efficiency Video Coding
Format profile : [email protected]@Main
Codec ID : V_MPEGH/ISO/HEVC
Duration : 1 h 38 min
Bit rate : 645 kb/s
Width : 1 280 pixels
Height : 694 pixels
Display aspect ratio : 1.85:1
Frame rate mode : Constant
Frame rate : 23.976 (24000/1001) FPS
Color space : YUV
Chroma subsampling : 4:2:0
Bit depth : 8 bits
Bits/(Pixel*Frame) : 0.030
Stream size : 454 MiB (91%)
Default : Yes
Forced : No
Color range : Limited
Color primaries : BT.709
Transfer characteristics : BT.709
Matrix coefficients : BT.709

Audio
ID : 2
Format : AAC LC
Codec ID : A_AAC-2
Duration : 1 h 38 min
Bit rate : 64.2 kb/s
Channel(s) : 2 channels
Channel layout : L R
Sampling rate : 48.0 kHz
Frame rate : 46.875 FPS (1024 SPF)
Compression mode : Lossy
Delay relative to video : 22 ms
Stream size : 45.1 MiB (9%)
Title : Stereo
Language : English
Default : Yes
Forced : No

Text #1
ID : 3
Format : ASS
Codec ID : S_TEXT/ASS
Duration : 1 h 31 min
Bit rate : 113 b/s
Count of elements : 1508
Compression mode : Lossless
Stream size : 75.8 KiB (0%)
Language : English
Default : Yes
Forced : Yes

Text #2
ID : 4
Format : ASS
Codec ID : S_TEXT/ASS
Duration : 1 h 31 min
Bit rate : 108 b/s
Count of elements : 1428
Compression mode : Lossless
Stream size : 72.3 KiB (0%)
Language : English
Default : No
Forced : No

[collapse]
Download Link(s)

Download

Direct download files get automatically deleted after a month or so. Posted on : 03/09/2019

[collapse]
Magnet Link

Magnet

Fargo.1996.INTERNAL.REMASTERED.1080p.BluRay.x264-AMIABLE-17.08 GB

[collapse]

You may also like...

error: nah :p~