Fearless (2006)

Huo Yuan Jia (original title)|PG-13 | 1h 44min | Action, Biography, Drama | 22 September 2006 (USA)

A biography of Chinese Martial Arts Master Huo Yuanjia, who is the founder and spiritual guru of the Jin Wu Sports Federation.

Watch trailer

Media information

General
Format : Matroska
Format version : Version 4
File size : 2.09 GiB
Duration : 2 h 20 min
Overall bit rate : 2 129 kb/s
Movie name : Fearless.2006.1080p.10bit.BluRay.8CH.x265.HEVC

Video
ID : 1
Format : HEVC
Format/Info : High Efficiency Video Coding
Format profile : Main [email protected]@Main
Codec ID : V_MPEGH/ISO/HEVC
Duration : 2 h 20 min
Bit rate : 1 802 kb/s
Width : 1 920 pixels
Height : 800 pixels
Display aspect ratio : 2.40:1
Frame rate mode : Constant
Frame rate : 23.976 (24000/1001) FPS
Color space : YUV
Chroma subsampling : 4:2:0
Bit depth : 10 bits
Bits/(Pixel*Frame) : 0.049
Stream size : 1.77 GiB (85%)
Default : Yes
Forced : No
Color range : Limited
Color primaries : BT.709
Transfer characteristics : BT.709
Matrix coefficients : BT.709

Audio
ID : 2
Format : AAC LC
Codec ID : A_AAC-2
Duration : 2 h 20 min
Bit rate : 320 kb/s
Channel(s) : 8 channels
Channel layout : C L R Ls Rs Lw Rw LFE
Sampling rate : 48.0 kHz
Frame rate : 46.875 FPS (1024 SPF)
Compression mode : Lossy
Delay relative to video : -21 ms
Stream size : 322 MiB (15%)
Language : Chinese
Default : Yes
Forced : No

Text
ID : 3
Format : VobSub
Muxing mode : zlib
Codec ID : S_VOBSUB
Duration : 2 h 18 min
Bit rate : 7 141 b/s
Count of elements : 1443
Stream size : 7.08 MiB (0%)
Language : English
Default : Yes
Forced : No

[collapse]
Download Link(s)

Part01 Part02

Direct download files get automatically deleted after a month or so. Posted on : 09/24/2020

[collapse]
Magnet Link

Magnet

Fearless-2006-Director-s-Cut-Extras-1080p-BluRay-x265-HEVC-10bit-EAC3-7-1-Chinese-8.0 GB

[collapse]

Media information

General
Format : Matroska
Format version : Version 4
File size : 1.10 GiB
Duration : 2 h 20 min
Overall bit rate : 1 114 kb/s
Movie name : Fearless.2006.720p.10bit.BluRay.6CH.x265.HEVC

Video
ID : 1
Format : HEVC
Format/Info : High Efficiency Video Coding
Format profile : Main [email protected]@Main
Codec ID : V_MPEGH/ISO/HEVC
Duration : 2 h 20 min
Bit rate : 851 kb/s
Width : 1 280 pixels
Height : 534 pixels
Display aspect ratio : 2.40:1
Frame rate mode : Constant
Frame rate : 23.976 (24000/1001) FPS
Color space : YUV
Chroma subsampling : 4:2:0
Bit depth : 10 bits
Bits/(Pixel*Frame) : 0.052
Stream size : 857 MiB (76%)
Default : Yes
Forced : No
Color range : Limited
Color primaries : BT.709
Transfer characteristics : BT.709
Matrix coefficients : BT.709

Audio
ID : 2
Format : AAC LC
Codec ID : A_AAC-2
Duration : 2 h 20 min
Bit rate : 256 kb/s
Channel(s) : 6 channels
Channel layout : C L R Ls Rs LFE
Sampling rate : 48.0 kHz
Frame rate : 46.875 FPS (1024 SPF)
Compression mode : Lossy
Delay relative to video : -21 ms
Stream size : 258 MiB (23%)
Language : Chinese
Default : Yes
Forced : No

Text
ID : 3
Format : VobSub
Muxing mode : zlib
Codec ID : S_VOBSUB
Duration : 2 h 18 min
Bit rate : 7 141 b/s
Count of elements : 1443
Stream size : 7.08 MiB (1%)
Language : English
Default : Yes
Forced : No

[collapse]
Download Link(s)

Download

Direct download files get automatically deleted after a month or so. Posted on : 09/24/2020

[collapse]
Magnet Link

Magnet

Fearless-2006-Director-s-Cut-Extras-1080p-BluRay-x265-HEVC-10bit-EAC3-7-1-Chinese-8.0 GB

[collapse]

You may also like...

error: nah :p~