Flight (2012)

R | 2h 18min | Drama, Thriller | 2 November 2012 (USA)

An airline pilot saves almost all his passengers on his malfunctioning airliner which eventually crashed, but an investigation into the accident reveals something troubling.

Watch trailer

Media information

General
Format : Matroska
Format version : Version 4
File size : 908 MiB
Duration : 2 h 18 min
Overall bit rate : 916 kb/s
Movie name : Flight.2012.1080p.BluRay.6CH.x265.HEVC
Encoded date : UTC 2019-01-02 17:59:35
Writing application : mkvmerge v29.0.0 (‘Like It Or Not’) 32-bit
Writing library : libebml v1.3.6 + libmatroska v1.4.9

Video
ID : 1
Format : HEVC
Format/Info : High Efficiency Video Coding
Format profile : [email protected]@Main
Codec ID : V_MPEGH/ISO/HEVC
Duration : 2 h 18 min
Bit rate : 721 kb/s
Width : 1 920 pixels
Height : 800 pixels
Display aspect ratio : 2.40:1
Frame rate mode : Constant
Frame rate : 23.976 (24000/1001) FPS
Color space : YUV
Chroma subsampling : 4:2:0
Bit depth : 8 bits
Bits/(Pixel*Frame) : 0.020
Stream size : 715 MiB (79%)
Default : Yes
Forced : No
Color range : Limited
Color primaries : BT.709
Transfer characteristics : BT.709
Matrix coefficients : BT.709

Audio
ID : 2
Format : AAC LC
Codec ID : A_AAC-2
Duration : 2 h 18 min
Bit rate : 192 kb/s
Channel(s) : 6 channels
Channel layout : L R C Cb Rls Rb
Sampling rate : 48.0 kHz
Frame rate : 46.875 FPS (1024 SPF)
Compression mode : Lossy
Delay relative to video : -21 ms
Stream size : 190 MiB (21%)
Title : Surround
Language : English
Default : Yes
Forced : No

Text #1
ID : 3
Format : ASS
Codec ID : S_TEXT/ASS
Duration : 2 h 10 min
Bit rate : 115 b/s
Count of elements : 2074
Compression mode : Lossless
Stream size : 111 KiB (0%)
Language : English
Default : Yes
Forced : Yes

Text #2
ID : 4
Format : ASS
Codec ID : S_TEXT/ASS
Duration : 2 h 11 min
Bit rate : 124 b/s
Count of elements : 2256
Compression mode : Lossless
Stream size : 119 KiB (0%)
Language : English
Default : No
Forced : No

[collapse]
Download Link(s)

Download

[RE-UP]-Direct download files get automatically deleted after a month or so. Posted on: 12/19/2019

[collapse]
Magnet Link

Magnet

Flight.2012.1080p.BluRay.x264-SPARKS-9.84 GB

[collapse]

Media information

General
Format : Matroska
Format version : Version 4
File size : 467 MiB
Duration : 2 h 18 min
Overall bit rate : 471 kb/s
Movie name : Flight.2012.720p.BluRay.2CH.x265.HEVC
Encoded date : UTC 2019-01-01 09:45:40
Writing application : mkvmerge v29.0.0 (‘Like It Or Not’) 32-bit
Writing library : libebml v1.3.6 + libmatroska v1.4.9

Video
ID : 1
Format : HEVC
Format/Info : High Efficiency Video Coding
Format profile : [email protected]@Main
Codec ID : V_MPEGH/ISO/HEVC
Duration : 2 h 18 min
Bit rate : 404 kb/s
Width : 1 280 pixels
Height : 534 pixels
Display aspect ratio : 2.40:1
Frame rate mode : Constant
Frame rate : 23.976 (24000/1001) FPS
Color space : YUV
Chroma subsampling : 4:2:0
Bit depth : 8 bits
Bits/(Pixel*Frame) : 0.025
Stream size : 401 MiB (86%)
Default : Yes
Forced : No
Color range : Limited
Color primaries : BT.709
Transfer characteristics : BT.709
Matrix coefficients : BT.709

Audio
ID : 2
Format : AAC LC
Codec ID : A_AAC-2
Duration : 2 h 18 min
Bit rate : 64.2 kb/s
Channel(s) : 2 channels
Channel layout : L R
Sampling rate : 48.0 kHz
Frame rate : 46.875 FPS (1024 SPF)
Compression mode : Lossy
Delay relative to video : -21 ms
Stream size : 63.7 MiB (14%)
Title : Stereo
Language : English
Default : Yes
Forced : No

Text #1
ID : 3
Format : ASS
Codec ID : S_TEXT/ASS
Duration : 2 h 10 min
Bit rate : 115 b/s
Count of elements : 2074
Compression mode : Lossless
Stream size : 111 KiB (0%)
Language : English
Default : Yes
Forced : Yes

Text #2
ID : 4
Format : ASS
Codec ID : S_TEXT/ASS
Duration : 2 h 11 min
Bit rate : 124 b/s
Count of elements : 2256
Compression mode : Lossless
Stream size : 119 KiB (0%)
Language : English
Default : No
Forced : No

[collapse]
Download Link(s)

Download

[RE-UP]-Direct download files get automatically deleted after a month or so. Posted on: 12/19/2019

[collapse]
Magnet Link

Magnet

Flight.2012.1080p.BluRay.x264-SPARKS-9.84 GB

[collapse]

You may also like...

error: nah :p~