Food, Inc. (2008)

PG | 1h 34min | Documentary | 31 July 2009 (USA)

Food, Inc. is a movie starring Michael Pollan, Eric Schlosser, and Richard Lobb. An unflattering look inside America’s corporate controlled food industry.

Watch trailer

Media information

General
Format : Matroska
Format version : Version 4 / Version 2
File size : 918 MiB
Duration : 1 h 33 min
Overall bit rate : 1 369 kb/s
Movie name : Food.Inc.2008.720p.BluRay.2CH.x265.HEVC
Encoded date : UTC 2018-07-01 10:30:50
Writing application : mkvmerge v24.0.0 (‘Beyond The Pale’) 32-bit
Writing library : libebml v1.3.6 + libmatroska v1.4.9

Video
ID : 1
Format : HEVC
Format/Info : High Efficiency Video Coding
Format profile : [email protected]@Main
Codec ID : V_MPEGH/ISO/HEVC
Duration : 1 h 33 min
Bit rate : 1 271 kb/s
Width : 1 280 pixels
Height : 720 pixels
Display aspect ratio : 16:9
Frame rate mode : Constant
Frame rate : 23.976 (24000/1001) FPS
Color space : YUV
Chroma subsampling : 4:2:0
Bit depth : 8 bits
Bits/(Pixel*Frame) : 0.058
Stream size : 852 MiB (93%)
Default : Yes
Forced : No
Color range : Limited
Color primaries : BT.709
Transfer characteristics : BT.709
Matrix coefficients : BT.709

Audio
ID : 2
Format : AAC
Format/Info : Advanced Audio Codec
Format profile : LC
Codec ID : A_AAC-2
Duration : 1 h 33 min
Bit rate : 96.0 kb/s
Channel(s) : 2 channels
Channel positions : Front: L R
Sampling rate : 48.0 kHz
Frame rate : 46.875 FPS (1024 SPF)
Compression mode : Lossy
Stream size : 64.3 MiB (7%)
Title : Stereo
Default : Yes
Forced : No

Text
ID : 3
Format : UTF-8
Codec ID : S_TEXT/UTF8
Codec ID/Info : UTF-8 Plain Text
Duration : 1 h 31 min
Bit rate : 87 b/s
Count of elements : 1589
Stream size : 58.6 KiB (0%)
Default : Yes
Forced : No

[collapse]
Download Link(s)

Download

Direct download files get automatically deleted after a month or so. Posted on : 07/01/2018

[collapse]
Magnet Link

Magnet

Source : Food.Inc.2008.1080p.BluRay.x264.DTS-FGT-8.01 GB

[collapse]

You may also like...

error: nah :p~