Foster (2018)

1h 53min | Documentary | June 2018 (USA)

Oscar®-winning filmmakers Deborah Oppenheimer and Mark Jonathan Harris (Into the Arms of Strangers: Stories of the Kindertransport) reunite for a revealing first-hand look at the foster care system as seen through the eyes of those who know it best. With extraordinary access to the inner workings of the Los Angeles County Department of Children and Family Services (DCFS), Oppenheimer and Harris go beyond the sensational headlines and stereotypes to take an unprecedented look at an often misunderstood world and upend some of the most enduring myths about foster care and those involved in the system.

Watch trailer

Media information

General
Format : Matroska
Format version : Version 4
File size : 952 MiB
Duration : 1 h 53 min
Overall bit rate : 1 172 kb/s
Movie name : Foster.2018.720p.WEB-DL.2CH.x264.AVC
Encoded date : UTC 2019-05-08 10:23:19
Writing application : mkvmerge v33.1.0 (‘Primrose’) 32-bit
Writing library : libebml v1.3.7 + libmatroska v1.5.0

Video
ID : 1
Format : AVC
Format/Info : Advanced Video Codec
Format profile : [email protected]
Format settings : CABAC / 5 Ref Frames
Format settings, CABAC : Yes
Format settings, Reference frames : 5 frames
Codec ID : V_MPEG4/ISO/AVC
Duration : 1 h 53 min
Bit rate : 1 105 kb/s
Width : 1 280 pixels
Height : 720 pixels
Display aspect ratio : 16:9
Frame rate mode : Constant
Frame rate : 23.976 (24000/1001) FPS
Color space : YUV
Chroma subsampling : 4:2:0
Bit depth : 8 bits
Scan type : Progressive
Bits/(Pixel*Frame) : 0.050
Stream size : 898 MiB (94%)
Default : Yes
Forced : No

Audio
ID : 2
Format : AAC LC SBR
Commercial name : HE-AAC
Format settings : Explicit
Codec ID : A_AAC-2
Duration : 1 h 53 min
Bit rate : 64.0 kb/s
Channel(s) : 2 channels
Channel layout : L R
Sampling rate : 48.0 kHz
Frame rate : 23.438 FPS (2048 SPF)
Compression mode : Lossy
Delay relative to video : 43 ms
Stream size : 52.0 MiB (5%)
Language : English
Default : Yes
Forced : No

Text #1
ID : 3
Format : UTF-8
Codec ID : S_TEXT/UTF8
Codec ID/Info : UTF-8 Plain Text
Duration : 1 h 50 min
Bit rate : 108 b/s
Count of elements : 2366
Stream size : 87.1 KiB (0%)
Language : English
Default : Yes
Forced : No

Text #2
ID : 4
Format : UTF-8
Codec ID : S_TEXT/UTF8
Codec ID/Info : UTF-8 Plain Text
Duration : 1 h 50 min
Bit rate : 108 b/s
Count of elements : 2366
Stream size : 87.1 KiB (0%)
Title : SDH
Language : English
Default : No
Forced : No

[collapse]
Download Link(s)

Download

Direct download files get automatically deleted after a month or so. Posted on : 05/08/2019

[collapse]
Magnet Link

Magnet

Foster.2018.1080p.AMZN.WEBRip.DDP5.1.x264-NTG-7.17 GB

[collapse]

You may also like...

error: nah :p~