Freelancers (2012)

R | 1h 36min | Action, Crime, Drama | 12 January 2013 (Japan)

The son of a slain NYPD officer joins the force, where he falls in with his father’s former partner and a team of rogue cops.

Watch trailer

Media information

General
Format : Matroska
Format version : Version 4 / Version 2
File size : 650 MiB
Duration : 1 h 36 min
Overall bit rate : 941 kb/s
Movie name : Freelancers.2012.720p.BluRay.2CH.x264.AVC
Encoded date : UTC 2018-07-15 16:32:16
Writing application : mkvmerge v25.0.0 (‘Prog Noir’) 32-bit
Writing library : libebml v1.3.6 + libmatroska v1.4.9

Video
ID : 1
Format : AVC
Format/Info : Advanced Video Codec
Format profile : [email protected]
Format settings : CABAC / 8 Ref Frames
Format settings, CABAC : Yes
Format settings, RefFrames : 8 frames
Codec ID : V_MPEG4/ISO/AVC
Duration : 1 h 36 min
Bit rate : 843 kb/s
Width : 1 280 pixels
Height : 528 pixels
Display aspect ratio : 2.40:1
Frame rate mode : Constant
Frame rate : 23.976 (24000/1001) FPS
Color space : YUV
Chroma subsampling : 4:2:0
Bit depth : 8 bits
Scan type : Progressive
Bits/(Pixel*Frame) : 0.052
Stream size : 582 MiB (90%)
Default : Yes
Forced : No

Audio
ID : 2
Format : AAC
Format/Info : Advanced Audio Codec
Format profile : LC
Codec ID : A_AAC-2
Duration : 1 h 36 min
Bit rate : 96.0 kb/s
Channel(s) : 2 channels
Channel positions : Front: L R
Sampling rate : 48.0 kHz
Frame rate : 46.875 FPS (1024 SPF)
Compression mode : Lossy
Delay relative to video : -83 ms
Stream size : 66.3 MiB (10%)
Language : English
Default : Yes
Forced : No

Text
ID : 3
Format : UTF-8
Codec ID : S_TEXT/UTF8
Codec ID/Info : UTF-8 Plain Text
Duration : 1 h 34 min
Bit rate : 76 b/s
Count of elements : 1556
Stream size : 53.3 KiB (0%)
Default : Yes
Forced : No

[collapse]
Download Link(s)

Download

Direct download files get automatically deleted after a month or so. Posted on : 07/15/2018

[collapse]
Magnet Link

Magnet

Freelancers.2012.1080p.BluRay.x264-BRMP- 7.94 GB

[collapse]

You may also like...

error: nah :p~