Friday the 13th Part III (1982)

R | 1h 35min | Horror, Thriller | 13 August 1982 (USA)

Having revived from his wounds, Jason Voorhees takes refuge at a cabin near Crystal Lake. As a group of co-eds arrive for their vacation, Jason continues his killing spree.

Watch trailer

Media information

General
Format : Matroska
Format version : Version 4
File size : 1.27 GiB
Duration : 1 h 35 min
Overall bit rate : 1 903 kb/s
Movie name : Friday.the.13th.Part.III.1982.1080p.10bit.BluRay.6CH.x265.HEVC

Video
ID : 1
Format : HEVC
Format/Info : High Efficiency Video Coding
Format profile : Main [email protected]@Main
Codec ID : V_MPEGH/ISO/HEVC
Duration : 1 h 35 min
Bit rate : 1 700 kb/s
Width : 1 920 pixels
Height : 818 pixels
Display aspect ratio : 2.35:1
Frame rate mode : Constant
Frame rate : 23.976 (24000/1001) FPS
Color space : YUV
Chroma subsampling : 4:2:0
Bit depth : 10 bits
Bits/(Pixel*Frame) : 0.045
Stream size : 1.13 GiB (89%)
Default : Yes
Forced : No
Color range : Limited
Color primaries : BT.709
Transfer characteristics : BT.709
Matrix coefficients : BT.709

Audio
ID : 2
Format : AAC LC
Codec ID : A_AAC-2
Duration : 1 h 35 min
Bit rate : 192 kb/s
Channel(s) : 6 channels
Channel layout : C L R Ls Rs LFE
Sampling rate : 48.0 kHz
Frame rate : 46.875 FPS (1024 SPF)
Compression mode : Lossy
Delay relative to video : -21 ms
Stream size : 130 MiB (10%)
Language : English
Default : Yes
Forced : No

Text
ID : 3
Format : PGS
Muxing mode : zlib
Codec ID : S_HDMV/PGS
Duration : 1 h 31 min
Bit rate : 18.3 kb/s
Count of elements : 1688
Stream size : 12.0 MiB (1%)
Language : English
Default : Yes
Forced : Yes

[collapse]
Download Link(s)

Download

Direct download files get automatically deleted after a month or so. Posted on : 03/30/2021

[collapse]
Magnet Link

Magnet

Friday.the.13th.Part.III.1982.RM4K.1080p.BluRay.x265.HEVC.10bit.AAC.5.1.4.6 GB

[collapse]

Media information

General
Format : Matroska
Format version : Version 4
File size : 649 MiB
Duration : 1 h 35 min
Overall bit rate : 953 kb/s
Movie name : Friday.the.13th.Part.III.1982.720p.10bit.BluRay.6CH.x265.HEVC

Video
ID : 1
Format : HEVC
Format/Info : High Efficiency Video Coding
Format profile : Main [email protected]@Main
Codec ID : V_MPEGH/ISO/HEVC
Duration : 1 h 35 min
Bit rate : 751 kb/s
Width : 1 280 pixels
Height : 546 pixels
Display aspect ratio : 2.35:1
Frame rate mode : Constant
Frame rate : 23.976 (24000/1001) FPS
Color space : YUV
Chroma subsampling : 4:2:0
Bit depth : 10 bits
Bits/(Pixel*Frame) : 0.045
Stream size : 511 MiB (79%)
Default : Yes
Forced : No
Color range : Limited
Color primaries : BT.709
Transfer characteristics : BT.709
Matrix coefficients : BT.709

Audio
ID : 2
Format : AAC LC
Codec ID : A_AAC-2
Duration : 1 h 35 min
Bit rate : 192 kb/s
Channel(s) : 6 channels
Channel layout : C L R Ls Rs LFE
Sampling rate : 48.0 kHz
Frame rate : 46.875 FPS (1024 SPF)
Compression mode : Lossy
Delay relative to video : -21 ms
Stream size : 130 MiB (20%)
Language : English
Default : Yes
Forced : No

Text
ID : 3
Format : PGS
Muxing mode : zlib
Codec ID : S_HDMV/PGS
Duration : 1 h 31 min
Bit rate : 18.3 kb/s
Count of elements : 1688
Stream size : 12.0 MiB (2%)
Language : English
Default : Yes
Forced : Yes

[collapse]
Download Link(s)

Download

Direct download files get automatically deleted after a month or so. Posted on : 03/30/2021

[collapse]
Magnet Link

Magnet

Friday.the.13th.Part.III.1982.RM4K.1080p.BluRay.x265.HEVC.10bit.AAC.5.1.4.6 GB

[collapse]

You may also like...

error: nah :p~